Ветчина, ветчина / Любовь, секс и ветчина / Jamón, jamón (Бигас Луна / Bigas Luna) [1992, Испания, комедия, мелодрама, драма, HDRip] VO


 

[Цитировать]

Ветчина, ветчина / Любовь, секс и ветчина / Jamón, jamón
Страна: Испания
Жанр: комедия, мелодрама, драма
Год выпуска: 1992
Продолжительность: 01:34:59
Перевод: Одноголосый закадровый
Cубтитры: нет

Режиссер: Бигас Луна / Bigas Luna
В ролях: Стефания Сандрелли, Анна Гальена, Хуан Диего, Пенелопа Крус, Хавьер Бардем, Жорди Молья, Томаш Мартин, Армандо Дел Рио, Диана Сассен, Чема Мазо
Описание: Мать молодого человека Жозе не хочет его свадьбы с Сильвией — дочерью местной проститутки. Правда мама еще не знает, что Сильвия беременна от ее сына. А когда узнает об этом, то нанимает молодого красавца Рауля, который работает на колбасном складе и мечтает быть тореадором. По ее замыслу Сильвия должна влюбиться в него, а соперник — ее сын будет лишним. Но события принимают совершенно непредсказуемый оборот и приводят к удивительным последствиям для всех.
Качество видео: HDRip [Ветчина, ветчина.mkv]
Формат видео: AVI
Видео: 656x352 (1.86:1), 24 fps, XviD build 73 ~956 kbps avg, 0.17 bit/pixel
Аудио: 48 kHz, MPEG Layer 3, 2 ch, ~128.00 kbps avg

MediaInfo

Общее
Полное имя : H:\Jamon,jamon.1992.hdrip_[745]_[teko].avi
Формат : AVI
Формат/Информация : Audio Video Interleave
Размер файла : 743 Мбайт
Продолжительность : 1 ч. 34 м.
Общий поток : 1094 Кбит/сек
Программа кодирования : VirtualDubMod 1.5.10.3 | www.virtualdub-fr.org || (build 2550/release)
Библиотека кодирования : VirtualDubMod build 2550/release
Видео
Идентификатор : 0
Формат : MPEG-4 Visual
Профиль формата : Advanced Simple@L5
Параметр BVOP формата : 2
Параметр QPel формата : Нет
Параметр GMC формата : Без точки перехода
Параметр матрицы формата : Выборочная
Идентификатор кодека : XVID
Идентификатор кодека/Подсказка : XviD
Продолжительность : 1 ч. 34 м.
Битрейт : 957 Кбит/сек
Ширина : 656 пикселей
Высота : 352 пикселя
Соотношение сторон : 1,85:1
Частота кадров : 24,000 кадра/сек
Цветовое пространство : YUV
Субдискретизация насыщенности : 4:2:0
Битовая глубина : 8 бит
Тип развёртки : Прогрессивная
Метод сжатия : С потерями
Бит/(Пиксели*Кадры) : 0.173
Размер потока : 650 Мбайт (87%)
Библиотека кодирования : XviD 73
Аудио
Идентификатор : 1
Формат : MPEG Audio
Версия формата : Version 1
Профиль формата : Layer 3
Идентификатор кодека : 55
Идентификатор кодека/Подсказка : MP3
Продолжительность : 1 ч. 34 м.
Вид битрейта : Постоянный
Битрейт : 128 Кбит/сек
Каналы : 2 канала
Частота : 48,0 КГц
Метод сжатия : С потерями
Размер потока : 87,0 Мбайт (12%)
Выравнивание : Соединение по промежуткам
Продолжительность промежутка : 42 мс. (1,00 видеокадр)
Время предзагрузки промежутка : 504 мс.
Библиотека кодирования : LAME3.98r
Настройки программы : -m s -V 4 -q 2 -lowpass 17 -b 128



Показать сообщения:    

Текущее время: 04-Дек 17:17

Часовой пояс: UTC + 3


Вы не можете начинать темы
Вы не можете отвечать на сообщения
Вы не можете редактировать свои сообщения
Вы не можете удалять свои сообщения
Вы не можете голосовать в опросах
Вы не можете прикреплять файлы к сообщениям
Вы не можете скачивать файлы