(Classical/Minimalism) Julia Wolfe (Джулия Вольф) - Anthracite Fields (Bang on a Can All-Stars & The Choir of Trinity Wall Street) - 2015, FLAC (image+.cue) lossless


Статистика раздачи [Обновить пиров]
Размер:  381 MB   |    Зарегистрирован:  1 год 1 месяц   |    Скачан:  1 раз

Полного источника не было: 6 месяцев 30 дней

Личеров:  3  [  0 KB/s  ]   Подробная статистика пиров
 
   
 
 
 

[Цитировать]

Julia Wolfe - Anthracite Fields
Жанр: Classical/Minimalism
Страна-производитель диска: USA
Год издания диска: 2015
Издатель (лейбл): Cantaloup Music
Номер по каталогу: CA21111
Аудиокодек: FLAC
Тип рипа: image+.cue
Битрейт аудио: lossless
Продолжительность: 59'38"
Источник: собственный рип
Наличие сканов в содержимом раздачи: да
Anthracite Fields:
1. Foundation
2. Breaker Boys
3. Speech
4. Flowers
5. Appliances
Исполнители:
Bang on a Can All-Stars
The Choir of Trinity Wall Street
Julian Wachner

Лог создания рипа

Exact Audio Copy V1.0 beta 1 from 15. November 2010
EAC extraction logfile from 24. October 2015, 13:44
Julia Wolfe / Anthracite Fields
Used drive : Optiarc DVD RW AD-7203A Adapter: 4 ID: 1
Read mode : SecureUtilize accurate stream : YesDefeat audio cache : YesMake use of C2 pointers : No
Read offset correction : 48Overread into Lead-In and Lead-Out : NoFill up missing offset samples with silence : YesDelete leading and trailing silent blocks : NoNull samples used in CRC calculations : YesUsed interface : Native Win32 interface for Win NT & 2000
Used output format : User Defined EncoderSelected bitrate : 128 kBit/sQuality : HighAdd ID3 tag : NoCommand line compressor : C:\Program Files\FLAC\flac.exeAdditional command line options : -T "COMMENT=Ripped by GFox" -8 -V %s
TOC of the extracted CD
Track | Start | Length | Start sector | End sector --------------------------------------------------------- 1 | 0:00.00 | 19:35.12 | 0 | 88136 2 | 19:35.12 | 14:24.35 | 88137 | 152971 3 | 33:59.47 | 6:28.69 | 152972 | 182140 4 | 40:28.41 | 6:38.37 | 182141 | 212027 5 | 47:07.03 | 12:31.55 | 212028 | 268407
Range status and errors
Selected range
Filename D:\EAC\Julia Wolfe - Anthracite Fields.wav
Peak level 100.0 % Extraction speed 0.8 X Range quality 100.0 % Test CRC A8886D0F Copy CRC A8886D0F Copy OK
No errors occurred
AccurateRip summary
Track 1 not present in databaseTrack 2 not present in databaseTrack 3 not present in databaseTrack 4 not present in databaseTrack 5 not present in database
None of the tracks are present in the AccurateRip database
End of status report
==== Log checksum F9F952AC42CF854F5765D74A77FB4243A5BB005350E065F2E05F13BE5BAD9791 ====
-Доп. информация: Минимализм мёртв, а я ещё нет. Такой неутешительный диагноз пришёл мне в голову после знакомства с лауреатом "Пулитцеровской премии за выдающееся музыкальное произведение 2015 года" сочинением одного из сооснователей проекта Bang on a Can американского композитора Джулии Вольф (род.1958). Действительно, часовая оратория о нелёгкой шахтёрской доле от престарелой фанатки Led Zeppelin на слух кажется запоздалым гостем из 70-х, времени радикального репититивного минимализма, с периодическими вкраплениями каких-то совсем уж чрезмерно рОковых арий. Но если работы Райха и Гласса времён становления американского минимализма носили абстрактный и даже ироничный характер (о чём говорят и их совершенно утилитарные названия: Music with Changing Parts, Music in Twelve Parts или Music for 18 Musicians), то оратория Вольф буквально до краёв переполнена абсолютно серьёзным пафосом. Таким образом, композитор пытается поместить содержание в форму, совершенно для такого содержания неподходящую. Тоже касается и упомянутых элементов рока. Заигрывать с рок-музыкой начал ещё "дедушка" Стив Райх (2x5, Radio Rewrite), но, если у патриарха и одного из основателей минимализма подобные эксперименты воспринимались скорее, как "милые стариковские шалости", то у Вольф это выглядит, как попытка рассказать серьёзную историю языком бродвейского мюзикла, и откровенно режет слух. Увы, но американский минимализм, похоже, действительно зашёл в тупик.
В общем, я только в очередной раз убедился в абсолютном вырождении некогда именитых премий: в наши дни их вручают непонятно кто, непонятно кому и непонятно за что.
-
[teatrix.ru].t9809.torrent 
Торрент: Зарегистрирован [ 2015-10-24 18:20 ] · A09F736C752C88F373A32B7F8F8877FF846044B5

Скачать .torrent

Скачать

16 KB

Статус: проверено
Скачан: 1 раз
Размер: 381 MB
terms.php



Быстрый ответ

Имя:

      
Для отправки сообщений необходимо включить JavaScript
Показать сообщения:    

Текущее время: 08-Дек 03:11

Часовой пояс: UTC + 3


Вы можете начинать темы
Вы можете отвечать на сообщения
Вы не можете редактировать свои сообщения
Вы не можете удалять свои сообщения
Вы не можете голосовать в опросах
Вы не можете прикреплять файлы к сообщениям
Вы можете скачивать файлы