Цветок тысяча и одной ночи / Il fiore delle mille e una notte (Пьер Паоло Пазолини / Pier Paolo Pasolini) [1974, Италия, Франция, Les Productions Artistes Associеs, Produzioni Europee Associati (PEA), Фэнтези, драма, комедия, BDRip-AVC] MVO + Sub Rus


 

[Цитировать]

Цветок тысяча и одной ночи / Il fiore delle mille e una notte
Страна: Италия, Франция, Les Productions Artistes Associеs, Produzioni Europee Associati (PEA)
Жанр: Фэнтези, драма, комедия
Год выпуска: 1974
Продолжительность: 02:10:39
Перевод: Профессиональный (многоголосый закадровый)
Cубтитры: русские
Оригинальная аудиодорожка: итальянский
Режиссер: Пьер Паоло Пазолини / Pier Paolo Pasolini
В ролях: Нинетто Даволи, Франко Читти, Тесса Буше, Маргарет Клементи, Инес Пеллегрини, Франко Мерли, Франкелис Ноэль, Али Абдулла, Кристиан Алигни, Жанна Гоффин Матье
Описание: Нур-эд-Дин, ищущий свою возлюбленную Зумурруд; рабыня, ставшая царицей в огромном восточном городе; кочевники и наложницы; принцы и джинны - вот герои сказок Шехерезады и фильма Пазолини. Как прокалённый жарким солнцем воздух пустыни рождает миражи, так и гений режиссёра воссоздает зыбкую реальность идиллического мира волшебства и секса, исчезающую с последними кадрами его шедевра...
Сэмпл: http://multi-up.com/1072688
Качество видео: BDRip-AVC - DVD9 (Custom)
Формат видео: MKV
Видео: x.264, 960x528 (16:9), 23.976 fps, 1269 kbps, 0.104 bit/pixel
Аудио: (Русский)AC3 Dolby Digital, 48 kHz, 2 ch, 192.00 kbps
Аудио 2: (Итальянский) AC3 Dolby Digital, 48 kHz, 1 ch, 128.00 kbps
Формат субтитров: softsub (SRT)

MediaInfo

Формат : Matroska
Версия формата : Version 4 / Version 2
Размер файла : 1,45 Гбайт
Продолжительность : 2 ч. 10 м.
Общий поток : 1591 Кбит/сек
Название фильма : Цветок тысяча и одной ночи
Дата кодирования : UTC 2015-10-24 18:38:40
Программа кодирования : mkvmerge v6.6.0 ('The Edge Of The In Between') built on Dec 1 2013 17:55:00
Библиотека кодирования : libebml v1.3.0 + libmatroska v1.4.1
Видео
Идентификатор : 1
Формат : AVC
Формат/Информация : Advanced Video Codec
Профиль формата : High@L4.1
Параметр CABAC формата : Да
Параметр ReFrames формата : 12 кадров
Идентификатор кодека : V_MPEG4/ISO/AVC
Продолжительность : 2 ч. 10 м.
Битрейт : 1269 Кбит/сек
Ширина : 960 пикселей
Высота : 528 пикселей
Соотношение сторон : 16:9
Режим частоты кадров : Постоянный
Частота кадров : 23,976 кадра/сек
Цветовое пространство : YUV
Субдискретизация насыщенности : 4:2:0
Битовая глубина : 8 бит
Тип развёртки : Прогрессивная
Бит/(Пиксели*Кадры) : 0.104
Размер потока : 1,13 Гбайт (78%)
Библиотека кодирования : x264 core 130 r2273 b3065e6
Настройки программы : cabac=1 / ref=12 / deblock=1:-3:-2 / analyse=0x3:0x133 / me=umh / subme=10 / psy=1 / psy_rd=1.46:0.08 / mixed_ref=1 / me_range=32 / chroma_me=1 / trellis=2 / 8x8dct=1 / cqm=0 / deadzone=21,11 / fast_pskip=0 / chroma_qp_offset=-3 / threads=3 / lookahead_threads=1 / sliced_threads=0 / nr=0 / decimate=1 / interlaced=0 / bluray_compat=0 / constrained_intra=0 / bframes=9 / b_pyramid=2 / b_adapt=2 / b_bias=0 / direct=3 / weightb=1 / open_gop=0 / weightp=2 / keyint=250 / keyint_min=23 / scenecut=40 / intra_refresh=0 / rc_lookahead=50 / rc=2pass / mbtree=1 / bitrate=1269 / ratetol=1.0 / qcomp=0.60 / qpmin=0 / qpmax=69 / qpstep=4 / cplxblur=20.0 / qblur=0.5 / ip_ratio=1.40 / aq=1:1.00
Default : Да
Forced : Нет
Аудио #1
Идентификатор : 2
Формат : AC-3
Формат/Информация : Audio Coding 3
Профиль формата : Dolby Digital
Расширение режима : CM (complete main)
Параметр Endianness формата : Big
Идентификатор кодека : A_AC3
Продолжительность : 2 ч. 10 м.
Вид битрейта : Постоянный
Битрейт : 192 Кбит/сек
Каналы : 2 канала
Расположение каналов : Front: L R
Частота : 48,0 КГц
Битовая глубина : 16 бит
Метод сжатия : С потерями
Размер потока : 179 Мбайт (12%)
Заголовок : Профессиональный (многоголосый закадровый)
Язык : Russian
Default : Да
Forced : Нет
Аудио #2
Идентификатор : 3
Формат : AC-3
Формат/Информация : Audio Coding 3
Расширение режима : CM (complete main)
Параметр Endianness формата : Big
Идентификатор кодека : A_AC3
Продолжительность : 2 ч. 10 м.
Вид битрейта : Постоянный
Битрейт : 128 Кбит/сек
Каналы : 1 канал
Расположение каналов : Front: C
Частота : 48,0 КГц
Битовая глубина : 16 бит
Метод сжатия : С потерями
Размер потока : 120 Мбайт (8%)
Заголовок : Оригинал
Язык : Italian
Default : Нет
Forced : Нет
Текст #1
Идентификатор : 4
Формат : UTF-8
Идентификатор кодека : S_TEXT/UTF8
Идентификатор кодека/Информация : UTF-8 Plain Text
Язык : Russian
Default : Да
Forced : Нет
Текст #2
Идентификатор : 5
Формат : UTF-8
Идентификатор кодека : S_TEXT/UTF8
Идентификатор кодека/Информация : UTF-8 Plain Text
Язык : English
Default : Нет
Forced : Нет

Скриншот c названием фильма

Скриншоты




Показать сообщения:    

Текущее время: 05-Дек 17:33

Часовой пояс: UTC + 3


Вы не можете начинать темы
Вы не можете отвечать на сообщения
Вы не можете редактировать свои сообщения
Вы не можете удалять свои сообщения
Вы не можете голосовать в опросах
Вы не можете прикреплять файлы к сообщениям
Вы не можете скачивать файлы