(Classical) Stanislaw Moniuszko - Overtures - Warsaw Philharmonic Orchestra, Antoni Wit - 2014, FLAC (image+.cue) lossless


 

[Цитировать]

Stanisław Moniuszko - Overtures - Warsaw Philharmonic Orchestra, Antoni Wit
Жанр: Classical
Год издания диска: 2014
Издатель (лейбл): Naxos
Номер по каталогу: 8.572716
Дата записи: 2011
Аудиокодек: FLAC
Тип рипа: image+.cue
Битрейт аудио: lossless
Продолжительность: 79:28
Источник: собственный рип
Наличие сканов в содержимом раздачи: да
Треклист:
Stanisław Moniuszko (1819-1872)
[1] Bajka (The Fairy Tale) – Overture (1848)
[2] Paria – Opera: Overture (1859-69)
[3] Halka – Opera: Overture (1848)
[4] Verbum nobile – Opera: Overture (1860)
[5] Flis (The Raftsman) – Opera: Overture (1858)
[6] Hrabina (The Countess) – Opera: Overture (1859)
[7] Straszny dwór (The Haunted Manor) – Opera: Intrada (1864)
[8] Jawnuta – Idyll: Overture (1860)
[9] Nowy Don Kiszot, czyli Sto szaleństw (The New Don Quixote, or 100 Follies) – Opera: Overture (1841)
[10] Kochanka hetmańska (The Hetman’s Mistress) – Opera: Overture (orch. Zygmunt Noskowski) (1854)
Исполнители:
Warsaw Philharmonic Orchestra
Antoni Wit

Лог создания рипа

Exact Audio Copy V1.1 from 23. June 2015
EAC extraction logfile from 21. October 2015, 21:48
Warsaw Philharmonic Orchestra, Antoni Wit / Moniuszko - Overtures
Used drive : HL-DT-STDVDRAM GU70N Adapter: 1 ID: 0
Read mode : SecureUtilize accurate stream : YesDefeat audio cache : YesMake use of C2 pointers : No
Read offset correction : 48Overread into Lead-In and Lead-Out : NoFill up missing offset samples with silence : YesDelete leading and trailing silent blocks : NoNull samples used in CRC calculations : YesUsed interface : Native Win32 interface for Win NT & 2000
Used output format : User Defined EncoderSelected bitrate : 128 kBit/sQuality : HighAdd ID3 tag : NoCommand line compressor : C:\Program Files (x86)\Exact Audio Copy\Flac\flac.exeAdditional command line options : -V -8 -T "Date=%year%" -T "Genre=%genre%" %source%
TOC of the extracted CD
Track | Start | Length | Start sector | End sector --------------------------------------------------------- 1 | 0:00.00 | 13:28.16 | 0 | 60615 2 | 13:28.16 | 9:47.00 | 60616 | 104640 3 | 23:15.16 | 8:35.61 | 104641 | 143326 4 | 31:51.02 | 5:16.46 | 143327 | 167072 5 | 37:07.48 | 10:01.61 | 167073 | 212208 6 | 47:09.34 | 9:00.02 | 212209 | 252710 7 | 56:09.36 | 4:08.18 | 252711 | 271328 8 | 60:17.54 | 4:12.45 | 271329 | 290273 9 | 64:30.24 | 7:33.16 | 290274 | 324264 10 | 72:03.40 | 7:22.35 | 324265 | 357449
Range status and errors
Selected range
Filename C:\temp\Naxos_8.572716 - Moniuszko - Overtures\Moniuszko - Overtures.wav
Peak level 98.8 % Extraction speed 2.3 X Range quality 100.0 % Test CRC 3B36459F Copy CRC 3B36459F Copy OK
No errors occurred
AccurateRip summary
Track 1 accurately ripped (confidence 4) [5BA8CE92] (AR v2)Track 2 accurately ripped (confidence 4) [8F95677B] (AR v2)Track 3 accurately ripped (confidence 4) [6E77F067] (AR v2)Track 4 accurately ripped (confidence 4) [6CE32BEE] (AR v2)Track 5 accurately ripped (confidence 4) [47E83F13] (AR v2)Track 6 accurately ripped (confidence 4) [A0A93101] (AR v2)Track 7 accurately ripped (confidence 4) [050F525D] (AR v2)Track 8 accurately ripped (confidence 4) [7A20B6F8] (AR v2)Track 9 accurately ripped (confidence 4) [AABC8C9A] (AR v2)Track 10 accurately ripped (confidence 5) [EED4A434] (AR v2)
All tracks accurately ripped
End of status report
==== Log checksum F26EB62CB4D017CFEDABDC0408FFD88A872D08ADBB55EE8A0845AD9B6F5B5A2C ====



Показать сообщения:    

Текущее время: 10-Дек 15:43

Часовой пояс: UTC + 3


Вы не можете начинать темы
Вы не можете отвечать на сообщения
Вы не можете редактировать свои сообщения
Вы не можете удалять свои сообщения
Вы не можете голосовать в опросах
Вы не можете прикреплять файлы к сообщениям
Вы не можете скачивать файлы