Ростовская культура. Провинциальный салон 25 лет в эфире / Рождественская встреча 2015 (Людмила Рублевская) [2015, Док. Культура, TVRip]


Статистика раздачи [Обновить пиров]
Размер:  281 MB   |    Зарегистрирован:  1 год 1 месяц   |    Скачан:  0 раз

Полного источника не было: Никогда

 
   
 
 
 

[Цитировать]

Ростовская культура. Провинциальный салон 25 лет в эфире / Рождественская встреча 2015
Дата/Год выпуска: 2015
Страна: Россия
Жанр: Док. Культура
Продолжительность: 00:30:07
Перевод: Не требуется
Русские субтитры: нет
Режиссер: Людмила Рублевская
Телеканал: Россия-24 - Дон-ТР
Описание: Провинциальный салон - Еженедельная программа, посвященная событиям донской культурной жизни. За 25 лет существования в программе менялись рубрики, шапки, музыкальное оформление, появлялись новые ведущие, но неизменно каждую неделю программа рассказывала и продолжает рассказывать о событиях и людях донской истории, культуры, искусства.
Рождественские встречи” - это тоже традиция. В самых красивых залах области собираются музейщики, актеры, писатели, композиторы и, непременно, меценаты, которые в течение года поддерживали донское искусство и культуру. Тех, кто платит стипендии юным дарованиям, кто помогает реставрировать произведения искусства и открывать выставки, финансирует театральные проекты. В память об этих добрых делах вручается маленькая керамическая медаль «Меценат года». А еще вручается Рождественский колокольчик «За реализацию невероятной идеи».
Доп. информация: Производство: ГТРК "Дон-ТР".
Ростовская культура - Провинциальный салон 20 лет в эфире / Рождественские встречи 2010
Качество: TVRip
Формат: AVI
Видео: Video: H264 700x400 25.00fps 1100Kbps
Аудио: Аудио: MPEG Audio Layer 3 48000Hz stereo 192Kbps

MediaInfo

GeneralComplete name : F:\Ростовская культура. Провинциальный салон 25 лет в эфире [Рождественские встречи 2015].aviFormat : AVIFormat/Info : Audio Video InterleaveFile size : 281 MiBDuration : 30mn 7sOverall bit rate : 1 302 KbpsWriting library : VirtualDub build 28346/release
VideoID : 0Format : AVCFormat/Info : Advanced Video CodecFormat profile : High@L3.1Format settings, CABAC : YesFormat settings, ReFrames : 8 framesCodec ID : H264Duration : 30mn 7sBit rate : 1 100 KbpsWidth : 700 pixelsHeight : 400 pixelsDisplay aspect ratio : 16:9Frame rate : 25.000 fpsColor space : YUVChroma subsampling : 4:2:0Bit depth : 8 bitsScan type : ProgressiveBits/(Pixel*Frame) : 0.157Stream size : 237 MiB (85%)Writing library : x264 core 130 r2274bm c832fe9Encoding settings : cabac=1 / ref=8 / deblock=1:-1:-1 / analyse=0x3:0x133 / me=umh / subme=9 / psy=1 / psy_rd=1.00:0.15 / mixed_ref=1 /me_range=16 / chroma_me=1 / trellis=2 / 8x8dct=1 / cqm=0 / deadzone=21,11 / fast_pskip=1 / chroma_qp_offset=-3 / threads=6 / lookahead_threads=1 /sliced_threads=0 / nr=0 / decimate=1 / interlaced=0 / bluray_compat=0 / constrained_intra=0 / bframes=3 / b_pyramid=2 / b_adapt=2 / b_bias=0 / direct=3 /weightb=1 / open_gop=0 / weightp=2 / keyint=250 / keyint_min=25 / scenecut=40 / intra_refresh=0 / rc_lookahead=60 / rc=2pass / mbtree=1 / bitrate=1100 /ratetol=1.0 / qcomp=0.60 / qpmin=0 / qpmax=69 / qpstep=4 / cplxblur=20.0 / qblur=0.5 / ip_ratio=1.40 / aq=1:1.00
AudioID : 1Format : MPEG AudioFormat version : Version 1Format profile : Layer 3Mode : Joint stereoCodec ID : 55Codec ID/Hint : MP3Duration : 30mn 7sBit rate mode : ConstantBit rate : 192 KbpsChannel(s) : 2 channelsSampling rate : 48.0 KHzStream size : 41.4 MiB (15%)Alignment : Split accross interleavesInterleave, duration : 40 ms (1.00 video frame)Interleave, preload duration : 500 ms

Скриншоты

[teatrix.ru].t9812.torrent 
Торрент: Зарегистрирован [ 2015-10-25 20:37 ] · 9335ADA8E1BA912BB592392EA2E20AA582EFEB14

Скачать .torrent

Скачать

12 KB

Статус: проверено
Скачан: 0 раз
Размер: 281 MB
terms.php



Быстрый ответ

Имя:

      
Для отправки сообщений необходимо включить JavaScript
Показать сообщения:    

Текущее время: 10-Дек 04:09

Часовой пояс: UTC + 3


Вы можете начинать темы
Вы можете отвечать на сообщения
Вы не можете редактировать свои сообщения
Вы не можете удалять свои сообщения
Вы не можете голосовать в опросах
Вы не можете прикреплять файлы к сообщениям
Вы можете скачивать файлы