(Opera) Enrico Caruso - Best Recordings 2 • Gomes - Savatore Rosa • Tosti - d\'Annonzio • Verdi - La Traviata • Puccini - La Boheme • Flotow - Marta etc. - 2003, APE (image+.cue) lossless


 

[Цитировать]

Enrico Caruso - Best Recordings 2
Жанр: Opera
Страна-производитель диска: Denmark
Год издания диска: 2003
Издатель (лейбл): Classic Options
Номер по каталогу: CD 3525
Аудиокодек: APE
Тип рипа: image+.cue
Битрейт аудио: lossless
Продолжительность: 71'34
Источник: собственный рип
Наличие сканов в содержимом раздачи: да
Треклист / Исполнители:
01. Noche Feliz (Pasadas)
02. Scordame (Manente / Tucito)
03. Mia Piccirella (Savator Rosa / Gomes)
04. Tu Ca Nun Chiange (Bovio / De Curtis)
05. La Partida (Blasco / Alvarez)
06. La Campana Di San Giusto (Drovetti / Arona)
07. Le Regiment De Sambre Et Meuse (Cezano / Plaquette)
08. 'A Vucchella (d'Annonzio / Paolo Tosti)
09. Santa Lucia (Cottrou)
10. Comme Un Bel Di Di Maggio (Giordano)
11. Brindisi - La Traviata (Verdi)
12. O Soave Fanciulla - La Boheme (Puccini)
13. M'appari Tut'Amor - Marta (Flotow)
14. Una Furtiva Lagrima - L'Eliser D'Amor (Donizetti)
15. Cujus Animam - Stabat Mater (Rossini)
16. Celeste - Aida (Verdi)
17. Addio Alla Madre - Cavalleria Rusticana (Mascagni)
18. Chi Mi Frena In Tal Momento - Lucia di Lammermoor (Donizetti)
19. Bella Figlia Dell'Amore - Rigoletto (Verdi)
20. Over There (Cohan)

Лог создания рипа

Exact Audio Copy V1.0 beta 3 from 29. August 2011
EAC extraction logfile from 15. August 2014, 12:11
Enrico Caruso / Best Recordings 2
Used drive : TS8XDVDSTRANSCEND Adapter: 1 ID: 1
Read mode : SecureUtilize accurate stream : YesDefeat audio cache : YesMake use of C2 pointers : No
Read offset correction : 6Overread into Lead-In and Lead-Out : NoFill up missing offset samples with silence : YesDelete leading and trailing silent blocks : NoNull samples used in CRC calculations : YesUsed interface : Native Win32 interface for Win NT & 2000
Used output format : Monkey's Audio Lossless EncoderSelected bitrate : High Lossless CompressionQuality : HighAdd ID3 tag : NoCommand line compressor : C:\Program Files (x86)\Exact Audio Copy\MAC\MAC.exe
TOC of the extracted CD
Track | Start | Length | Start sector | End sector --------------------------------------------------------- 1 | 0:00.00 | 2:25.55 | 0 | 10929 2 | 2:25.55 | 3:08.21 | 10930 | 25050 3 | 5:34.01 | 3:43.53 | 25051 | 41828 4 | 9:17.54 | 2:34.58 | 41829 | 53436 5 | 11:52.37 | 4:42.34 | 53437 | 74620 6 | 16:34.71 | 4:35.64 | 74621 | 95309 7 | 21:10.60 | 4:14.70 | 95310 | 114429 8 | 25:25.55 | 3:01.60 | 114430 | 128064 9 | 28:27.40 | 4:13.45 | 128065 | 147084 10 | 32:41.10 | 2:56.53 | 147085 | 160337 11 | 35:37.63 | 3:06.15 | 160338 | 174302 12 | 38:44.03 | 3:39.01 | 174303 | 190728 13 | 42:23.04 | 3:38.37 | 190729 | 207115 14 | 46:01.41 | 4:19.05 | 207116 | 226545 15 | 50:20.46 | 4:39.74 | 226546 | 247544 16 | 55:00.45 | 4:39.09 | 247545 | 268478 17 | 59:39.54 | 3:59.72 | 268479 | 286475 18 | 63:39.51 | 4:04.66 | 286476 | 304841 19 | 67:44.42 | 3:53.57 | 304842 | 322373 20 | 71:38.24 | 2:49.48 | 322374 | 335096
Range status and errors
Selected range
Filename D:\EAC\Enrico Caruso - Best Recordings 2.wav
Peak level 73.3 % Extraction speed 3.5 X Range quality 100.0 % Test CRC 98DD0138 Copy CRC 98DD0138 Copy OK
No errors occurred
AccurateRip summary
Track 1 accurately ripped (confidence 2) [4740143C] (AR v1)Track 2 accurately ripped (confidence 2) [C6F353C6] (AR v1)Track 3 accurately ripped (confidence 2) [6AEC69B9] (AR v1)Track 4 accurately ripped (confidence 2) [47423EA3] (AR v1)Track 5 accurately ripped (confidence 2) [FC665A54] (AR v1)Track 6 accurately ripped (confidence 2) [C5F4E5B5] (AR v1)Track 7 accurately ripped (confidence 2) [A6651475] (AR v1)Track 8 accurately ripped (confidence 2) [B533427C] (AR v1)Track 9 accurately ripped (confidence 2) [11C5FDE5] (AR v1)Track 10 accurately ripped (confidence 2) [CED1F74F] (AR v1)Track 11 accurately ripped (confidence 2) [18C3DD73] (AR v1)Track 12 accurately ripped (confidence 2) [8AB15F27] (AR v1)Track 13 accurately ripped (confidence 2) [DFAF1126] (AR v1)Track 14 accurately ripped (confidence 2) [13BDF21F] (AR v1)Track 15 accurately ripped (confidence 2) [C40A3554] (AR v1)Track 16 accurately ripped (confidence 2) [580A967B] (AR v1)Track 17 accurately ripped (confidence 2) [B11D2138] (AR v1)Track 18 accurately ripped (confidence 2) [91189A01] (AR v1)Track 19 accurately ripped (confidence 2) [C166DA9F] (AR v1)Track 20 accurately ripped (confidence 2) [7399BF84] (AR v1)
All tracks accurately ripped
End of status report
---- CUETools DB Plugin V2.1.3
[CTDB TOCID: 4RmufVIOaPUocVmoKSKqWU5zWKA-] disk not present in database, Submit result: unrecognized or virtual drive
==== Log checksum 6175D8971D6589EE707FBACEB86E343780E07BD9C9711397A5131757945D5397 ====

Содержание индексной карты (.CUE)

REM GENRE OperaREM DISCID 14117314REM COMMENT "ExactAudioCopy v1.0b3"PERFORMER "Enrico Caruso"TITLE "Best Recordings 2"FILE "Enrico Caruso - Best Recordings 2.ape" WAVE TRACK 01 AUDIO TITLE "Noche Feliz" PERFORMER "Enrico Caruso" INDEX 01 00:00:00 TRACK 02 AUDIO TITLE "Scordame" PERFORMER "Enrico Caruso" INDEX 00 02:23:55 INDEX 01 02:25:55 TRACK 03 AUDIO TITLE "Mia Piccirella" PERFORMER "Enrico Caruso" INDEX 00 05:32:01 INDEX 01 05:34:01 TRACK 04 AUDIO TITLE "Tu Ca Nun Chiange" PERFORMER "Enrico Caruso" INDEX 00 09:15:54 INDEX 01 09:17:54 TRACK 05 AUDIO TITLE "La Partida" PERFORMER "Enrico Caruso" INDEX 00 11:50:37 INDEX 01 11:52:37 TRACK 06 AUDIO TITLE "La Campana Di San Giusto" PERFORMER "Enrico Caruso" INDEX 00 16:32:71 INDEX 01 16:34:71 TRACK 07 AUDIO TITLE "Le Regiment De Sambre Et Meuse" PERFORMER "Enrico Caruso" INDEX 00 21:08:60 INDEX 01 21:10:60 TRACK 08 AUDIO TITLE "'A Vucchella" PERFORMER "Enrico Caruso" INDEX 00 25:23:55 INDEX 01 25:25:55 TRACK 09 AUDIO TITLE "Santa Lucia" PERFORMER "Enrico Caruso" INDEX 00 28:25:40 INDEX 01 28:27:40 TRACK 10 AUDIO TITLE "Comme Un Bel Di Di Maggio" PERFORMER "Enrico Caruso" INDEX 00 32:39:10 INDEX 01 32:41:10 TRACK 11 AUDIO TITLE "Brindisi - La Traviata" PERFORMER "Enrico Caruso" INDEX 00 35:35:63 INDEX 01 35:37:63 TRACK 12 AUDIO TITLE "O Soave Fanciulla" PERFORMER "Enrico Caruso" INDEX 00 38:42:03 INDEX 01 38:44:03 TRACK 13 AUDIO TITLE "M'appari Tut'Amor" PERFORMER "Enrico Caruso" INDEX 00 42:21:04 INDEX 01 42:23:04 TRACK 14 AUDIO TITLE "Una Furtiva Lagrima" PERFORMER "Enrico Caruso" INDEX 00 45:59:41 INDEX 01 46:01:41 TRACK 15 AUDIO TITLE "Cujus Animam" PERFORMER "Enrico Caruso" INDEX 00 50:18:46 INDEX 01 50:20:46 TRACK 16 AUDIO TITLE "Celeste Aida" PERFORMER "Enrico Caruso" INDEX 00 54:58:45 INDEX 01 55:00:45 TRACK 17 AUDIO TITLE "Addio Alla Madre" PERFORMER "Enrico Caruso" INDEX 00 59:37:55 INDEX 01 59:39:54 TRACK 18 AUDIO TITLE "Chi Mi Frena In Tal Momento?" PERFORMER "Enrico Caruso" INDEX 00 63:37:51 INDEX 01 63:39:51 TRACK 19 AUDIO TITLE "Bella Figlia Dell'Amore" PERFORMER "Enrico Caruso" INDEX 00 67:42:42 INDEX 01 67:44:42 TRACK 20 AUDIO TITLE "Over There" PERFORMER "Enrico Caruso" INDEX 00 71:36:24 INDEX 01 71:38:24



Показать сообщения:    

Текущее время: 02-Дек 23:04

Часовой пояс: UTC + 3


Вы не можете начинать темы
Вы не можете отвечать на сообщения
Вы не можете редактировать свои сообщения
Вы не можете удалять свои сообщения
Вы не можете голосовать в опросах
Вы не можете прикреплять файлы к сообщениям
Вы не можете скачивать файлы