(Radio Opera) Reutter - Die Brucke von San Luis Ray (Patzak, Meister, Roessel-Majdan, Loose, Schreier - Grosses Wiener Rundfunkorchester, Gielen) - 2008, APE (image+.cue) lossless


 

[Цитировать]

Hermann Reutter - Die Brücke von San Luis Ray
Жанр: Radio Opera
Страна-производитель диска: EU
Год издания диска: 2008
Издатель (лейбл): Walhall
Номер по каталогу: WLCD 0245
Дата записи: 1955
Аудиокодек: APE
Тип рипа: image+.cue
Битрейт аудио: lossless
Продолжительность: 69'27
Источник: собственный рип
Наличие сканов в содержимом раздачи: да
Треклист:
1. Sinfonia
2. Erzählung
3. Es war ein Ton
4. Erzählung
5. La Fortuna gab ihr un Palacio
6. Ihre Gnaden fühlen sich vielleicht beleidigt
7. Erzählung
8. Ihre Gnaden, das Schiff, nach dem ihre Gnaden fragte
9. Erzählung
10. In all meiner Verlassenheit
11. Von den tausenden Menschen
12. Wollte Gott ihren Tod ?
13. Donna !...Schweig still
14. Mir zuliebe brauchst du nicht zu sagen
15. Erzählung
16. Ich brauche deine Hilfe !
17. Siehst di ihn denn nicht ?
18. Ich bin Kapitän Alvarado
19. Estéban !...Kapitän !
20. Erzählung
21. Und dann kam dieser Ton
22. Es war eine ganz hübsche Vorstellung heute abend
23. Erzählung
24. Onkel Pio !...Camila...
25. Erzählung
26. Gott ist es gewesen, seine Fügung !
27. Erzählung
28. Ich war nie mutig, im Leben nicht
Исполнители:
Hermann Reutter - Die Brücke von San Luis Ray
Funkoper
Ein Sprecher - Ernst Meister, speaker
Marques - Hilde Rössel-Majdan, mezzo soprano
Perichole - Gerda Scheyrer, soprano
Pepita - Emmy Loose, soprano
Madre Maria - Gertrude Schretter, contralto
Juniper - Julius Patzak, tenor
Estéban - Walter Berry, bass-baritone
Manuel - Waldemar Kmentt, tenor
Alvarado - Alois Pernerstorfer, bass
Onkel Pio - Peter Klein, tenor
Ein Kammerchor
Grosses Wiener Rundfunkorchester
Michael Gielen

Лог создания рипа

Exact Audio Copy V1.0 beta 3 from 29. August 2011
EAC extraction logfile from 2. October 2014, 14:32
Reutter / Die Brücke von San Luis Ray, Gielen
Used drive : TSSTcorpCDDVDW SE-208AB Adapter: 1 ID: 0
Read mode : SecureUtilize accurate stream : YesDefeat audio cache : YesMake use of C2 pointers : No
Read offset correction : 6Overread into Lead-In and Lead-Out : NoFill up missing offset samples with silence : YesDelete leading and trailing silent blocks : NoNull samples used in CRC calculations : YesUsed interface : Native Win32 interface for Win NT & 2000
Used output format : Monkey's Audio Lossless EncoderSelected bitrate : High Lossless CompressionQuality : HighAdd ID3 tag : NoCommand line compressor : C:\Program Files (x86)\Exact Audio Copy\MAC\MAC.exe
TOC of the extracted CD
Track | Start | Length | Start sector | End sector --------------------------------------------------------- 1 | 0:00.00 | 1:33.37 | 0 | 7011 2 | 1:33.37 | 2:08.46 | 7012 | 16657 3 | 3:42.08 | 6:01.13 | 16658 | 43745 4 | 9:43.21 | 0:25.33 | 43746 | 45653 5 | 10:08.54 | 2:33.67 | 45654 | 57195 6 | 12:42.46 | 3:24.07 | 57196 | 72502 7 | 16:06.53 | 1:15.47 | 72503 | 78174 8 | 17:22.25 | 2:01.69 | 78175 | 87318 9 | 19:24.19 | 1:05.41 | 87319 | 92234 10 | 20:29.60 | 1:55.50 | 92235 | 100909 11 | 22:25.35 | 3:40.42 | 100910 | 117451 12 | 26:06.02 | 3:21.37 | 117452 | 132563 13 | 29:27.39 | 3:17.20 | 132564 | 147358 14 | 32:44.59 | 4:30.34 | 147359 | 167642 15 | 37:15.18 | 0:48.34 | 167643 | 171276 16 | 38:03.52 | 2:06.33 | 171277 | 180759 17 | 40:10.10 | 0:54.05 | 180760 | 184814 18 | 41:04.15 | 2:59.52 | 184815 | 198291 19 | 44:03.67 | 2:12.27 | 198292 | 208218 20 | 46:16.19 | 0:41.51 | 208219 | 211344 21 | 46:57.70 | 5:10.01 | 211345 | 234595 22 | 52:07.71 | 1:02.12 | 234596 | 239257 23 | 53:10.08 | 2:25.29 | 239258 | 250161 24 | 55:35.37 | 3:32.74 | 250162 | 266135 25 | 59:08.36 | 1:15.12 | 266136 | 271772 26 | 60:23.48 | 2:45.64 | 271773 | 284211 27 | 63:09.37 | 0:44.73 | 284212 | 287584 28 | 63:54.35 | 5:33.18 | 287585 | 312577
Range status and errors
Selected range
Filename D:\EAC\Reutter - Die Brücke von San Luis Ray, Gielen.wav
Peak level 100.0 % Extraction speed 4.8 X Range quality 100.0 % Test CRC 05BE9B59 Copy CRC 05BE9B59 Copy OK
No errors occurred
AccurateRip summary
Track 1 cannot be verified as accurate (confidence 1) [5A03F857], AccurateRip returned [49FF9A88] (AR v2)Track 2 cannot be verified as accurate (confidence 1) [126672B1], AccurateRip returned [9C1A0A48] (AR v2)Track 3 cannot be verified as accurate (confidence 1) [CADD889D], AccurateRip returned [91557B05] (AR v2)Track 4 cannot be verified as accurate (confidence 1) [AAF5959B], AccurateRip returned [970D4D9F] (AR v2)Track 5 cannot be verified as accurate (confidence 1) [C9C6659B], AccurateRip returned [5866F34B] (AR v2)Track 6 cannot be verified as accurate (confidence 1) [B264D9B7], AccurateRip returned [F23E5F94] (AR v2)Track 7 cannot be verified as accurate (confidence 1) [1CC12878], AccurateRip returned [07ED3C44] (AR v2)Track 8 cannot be verified as accurate (confidence 1) [7EA6B4B3], AccurateRip returned [97853787] (AR v2)Track 9 cannot be verified as accurate (confidence 1) [59F62CF4], AccurateRip returned [D85A365C] (AR v2)Track 10 cannot be verified as accurate (confidence 1) [AF89F6F9], AccurateRip returned [1207BDCA] (AR v2)Track 11 cannot be verified as accurate (confidence 1) [E0A8DF17], AccurateRip returned [8249CEB0] (AR v2)Track 12 cannot be verified as accurate (confidence 1) [DF0E678B], AccurateRip returned [75077527] (AR v2)Track 13 cannot be verified as accurate (confidence 1) [0F5F0214], AccurateRip returned [537E5266] (AR v2)Track 14 cannot be verified as accurate (confidence 1) [8DAFAA7C], AccurateRip returned [8C25B521] (AR v2)Track 15 cannot be verified as accurate (confidence 1) [108AF757], AccurateRip returned [D8F90D5B] (AR v2)Track 16 cannot be verified as accurate (confidence 1) [EBDF795E], AccurateRip returned [1046DE69] (AR v2)Track 17 cannot be verified as accurate (confidence 1) [4AFCFBFE], AccurateRip returned [2BEB9F90] (AR v2)Track 18 cannot be verified as accurate (confidence 1) [5AEF4E10], AccurateRip returned [BB4FAEAE] (AR v2)Track 19 cannot be verified as accurate (confidence 1) [ECF5567D], AccurateRip returned [4C65800A] (AR v2)Track 20 cannot be verified as accurate (confidence 1) [A1B3AC38], AccurateRip returned [49DC9D55] (AR v2)Track 21 cannot be verified as accurate (confidence 1) [C2A12DC1], AccurateRip returned [8E1CCAB0] (AR v2)Track 22 cannot be verified as accurate (confidence 1) [D2A1482E], AccurateRip returned [E3E1B122] (AR v2)Track 23 cannot be verified as accurate (confidence 1) [65A485D1], AccurateRip returned [C725C2E9] (AR v2)Track 24 cannot be verified as accurate (confidence 1) [AEB544F4], AccurateRip returned [F1F47794] (AR v2)Track 25 cannot be verified as accurate (confidence 1) [F1F8B897], AccurateRip returned [B8596B16] (AR v2)Track 26 cannot be verified as accurate (confidence 1) [8E376571], AccurateRip returned [C0833A39] (AR v2)Track 27 cannot be verified as accurate (confidence 1) [CC1706D2], AccurateRip returned [3CD334D0] (AR v2)Track 28 cannot be verified as accurate (confidence 1) [44A814C0], AccurateRip returned [0AC30AC3] (AR v2)
No tracks could be verified as accurateYou may have a different pressing from the one(s) in the database
End of status report
---- CUETools DB Plugin V2.1.3
[CTDB TOCID: dbmXSWeOf8VO5VirVdjv5xbNmzk-] disk not present in database, Submit result: dbmXSWeOf8VO5VirVdjv5xbNmzk- has been uploaded
==== Log checksum 05580F7ADB10C3455FFF28E555AA68200CCDC9F7BA79C14F6A09645758A6E993 ====

Содержание индексной карты (.CUE)

REM GENRE "Radio Opera"REM DATE 1955REM DISCID B210471CREM COMMENT "ExactAudioCopy v1.0b3"PERFORMER "Reutter"TITLE "Die Brücke von San Luis Ray, Gielen"FILE "Reutter - Die Brücke von San Luis Ray, Gielen.ape" WAVE TRACK 01 AUDIO TITLE "Sinfonia" PERFORMER "Reutter" INDEX 01 00:00:00 TRACK 02 AUDIO TITLE "Erzählung" PERFORMER "Reutter" INDEX 01 01:33:37 TRACK 03 AUDIO TITLE "Es war ein Ton" PERFORMER "Reutter" INDEX 01 03:42:08 TRACK 04 AUDIO TITLE "Erzählung" PERFORMER "Reutter" INDEX 01 09:43:21 TRACK 05 AUDIO TITLE "La Fortuna gab ihr un Palacio" PERFORMER "Reutter" INDEX 01 10:08:54 TRACK 06 AUDIO TITLE "Ihre Gnaden fühlen sich vielleicht beleidigt" PERFORMER "Reutter" INDEX 01 12:42:46 TRACK 07 AUDIO TITLE "Erzählung" PERFORMER "Reutter" INDEX 01 16:06:53 TRACK 08 AUDIO TITLE "Ihre Gnaden, das Schiff, nach dem ihre Gnaden fragte" PERFORMER "Reutter" INDEX 01 17:22:25 TRACK 09 AUDIO TITLE "Erzählung" PERFORMER "Reutter" INDEX 01 19:24:19 TRACK 10 AUDIO TITLE "In all meiner Verlassenheit" PERFORMER "Reutter" INDEX 01 20:29:60 TRACK 11 AUDIO TITLE "Von den tausenden Menschen" PERFORMER "Reutter" INDEX 01 22:25:35 TRACK 12 AUDIO TITLE "Wollte Gott ihren Tod ?" PERFORMER "Reutter" INDEX 01 26:06:02 TRACK 13 AUDIO TITLE "Donna !...Schweig still" PERFORMER "Reutter" INDEX 01 29:27:39 TRACK 14 AUDIO TITLE "Mir zuliebe brauchst du nicht zu sagen" PERFORMER "Reutter" INDEX 01 32:44:59 TRACK 15 AUDIO TITLE "Erzählung" PERFORMER "Reutter" INDEX 01 37:15:18 TRACK 16 AUDIO TITLE "Ich brauche deine Hilfe !" PERFORMER "Reutter" INDEX 01 38:03:52 TRACK 17 AUDIO TITLE "Siehst di ihn denn nicht ?" PERFORMER "Reutter" INDEX 01 40:10:10 TRACK 18 AUDIO TITLE "Ich bin Kapitän Alvarado" PERFORMER "Reutter" INDEX 01 41:04:15 TRACK 19 AUDIO TITLE "Estéban !...Kapitän !" PERFORMER "Reutter" INDEX 01 44:03:67 TRACK 20 AUDIO TITLE "Erzählung" PERFORMER "Reutter" INDEX 01 46:16:19 TRACK 21 AUDIO TITLE "Und dann kam dieser Ton" PERFORMER "Reutter" INDEX 01 46:57:70 TRACK 22 AUDIO TITLE "Es war eine ganz hübsche Vorstellung heute abend" PERFORMER "Reutter" INDEX 01 52:07:71 TRACK 23 AUDIO TITLE "Erzählung" PERFORMER "Reutter" INDEX 01 53:10:08 TRACK 24 AUDIO TITLE "Onkel Pio !...Camila..." PERFORMER "Reutter" INDEX 01 55:35:37 TRACK 25 AUDIO TITLE "Erzählung" PERFORMER "Reutter" INDEX 01 59:08:36 TRACK 26 AUDIO TITLE "Gott ist es gewesen, seine Fügung !" PERFORMER "Reutter" INDEX 01 60:23:48 TRACK 27 AUDIO TITLE "Erzählung" PERFORMER "Reutter" INDEX 01 63:09:37 TRACK 28 AUDIO TITLE "Ich war nie mutig, im Leben nicht" PERFORMER "Reutter" INDEX 01 63:54:35



Показать сообщения:    

Текущее время: 08-Дек 17:19

Часовой пояс: UTC + 3


Вы не можете начинать темы
Вы не можете отвечать на сообщения
Вы не можете редактировать свои сообщения
Вы не можете удалять свои сообщения
Вы не можете голосовать в опросах
Вы не можете прикреплять файлы к сообщениям
Вы не можете скачивать файлы