(Opera) Giacomo Puccini - Tosca / Джаккомо Пуччини - Тоска (Olivero, Fernandi, Colombo, Amodei - RAI Milan Symphony Orchestra & Chorus, Tieri) - 2007, APE (image+.cue) lossless


 

[Цитировать]

Giacomo Puccini - Tosca
Жанр: Opera
Страна-производитель диска: EU
Год издания диска: 2007
Издатель (лейбл): Andromeda
Номер по каталогу: ANDRCD 5104
Дата записи: 1957
Аудиокодек: APE
Тип рипа: image+.cue
Битрейт аудио: lossless
Продолжительность: 42'42+66'21
Источник: собственный рип
Наличие сканов в содержимом раздачи: да
Треклист:

CD1

Act 1
1. Ah, finalmente!... Nel terror mio stolto (1. Akt)
2. E sempre lava...
3. Dammi i colori!... Recondita armonia
4. Voi! Cavaradossi!
5. Mario! Mario! Mario!
6. Non la sospiri la nostra casetta
7. Or lasciami al lavoro
8. Ah, quegli occhi!
9. E' buona la mia Tosca
10. Tutta qui la cantoria!
11. Un tal baccano in chiesa!
10. Mario?! Mario?!
11. Un tal baccano in chiesa!
12. Tosca? Che non mi veda
13. Tre sbirri... Una carrozza

CD2

Act 2
1. Tosca e un buon falco
2. O galuntuomo, come andò la cacci's
3. Sale, ascende l'uman cantico
4. Dovè Angelotti?
5. Ed or fra noi parliam da buoni amici
6. Ahimé!
7. Nel pozzo, nelgiardino
8. Quanto?
9. Vissi d'arte
10. Chi è là?
Act 3
11. Io de' sospiri
12. Mario Cavarodossi
13. E lucevan le stelle
14. Ah! Franchigia a Floria Tosca
15. O dolci mani
16. Com'e lunga l'attesa
17. Presto, su! Mario! Mario!
Исполнители:
Giacomo Puccini - Tosca
Tosca - Magda Olivero
Mario Cavaradossi - Eugenio Femandi
Scarpia - Scipio Colombo
Angelotti - Giovanni Amodei
Sagrestano - Vito de Taranto
Spoletta - Piero de Palma
Sciarrone - Sergio Livi
RAI Milan Symphony Orchestra & Chorus
Emidio Tieri

Лог создания рипа

CD1

Exact Audio Copy V1.0 beta 3 from 29. August 2011
EAC extraction logfile from 15. August 2014, 21:30
Puccini / Tosca, Tieri CD1
Used drive : TS8XDVDSTRANSCEND Adapter: 1 ID: 1
Read mode : Secure
Utilize accurate stream : Yes
Defeat audio cache : Yes
Make use of C2 pointers : No
Read offset correction : 6
Overread into Lead-In and Lead-Out : No
Fill up missing offset samples with silence : Yes
Delete leading and trailing silent blocks : No
Null samples used in CRC calculations : Yes
Used interface : Native Win32 interface for Win NT & 2000
Used output format : Monkey's Audio Lossless Encoder
Selected bitrate : High Lossless Compression
Quality : High
Add ID3 tag : No
Command line compressor : C:\Program Files (x86)\Exact Audio Copy\MAC\MAC.exe
TOC of the extracted CD
Track | Start | Length | Start sector | End sector
---------------------------------------------------------
1 | 0:00.00 | 2:06.15 | 0 | 9464
2 | 2:06.15 | 3:27.07 | 9465 | 24996
3 | 5:33.22 | 4:24.56 | 24997 | 44852
4 | 9:58.03 | 1:03.05 | 44853 | 49582
5 | 11:01.08 | 2:54.05 | 49583 | 62637
6 | 13:55.13 | 2:19.19 | 62638 | 73081
7 | 16:14.32 | 1:42.65 | 73082 | 80796
8 | 17:57.22 | 5:18.00 | 80797 | 104646
9 | 23:15.22 | 3:47.04 | 104647 | 121675
10 | 27:02.26 | 1:15.38 | 121676 | 127338
11 | 28:17.64 | 3:58.64 | 127339 | 145252
12 | 32:16.53 | 6:27.38 | 145253 | 174315
13 | 38:44.16 | 3:56.45 | 174316 | 192060
Range status and errors
Selected range
Filename D:\EAC\Puccini - Tosca, Tieri CD1.wav
Peak level 100.0 %
Extraction speed 4.1 X
Range quality 100.0 %
Test CRC FB9CECA1
Copy CRC FB9CECA1
Copy OK
No errors occurred
AccurateRip summary
Track 1 accurately ripped (confidence 1) [34D04D97] (AR v1)
Track 2 accurately ripped (confidence 1) [B29A6D57] (AR v1)
Track 3 accurately ripped (confidence 1) [1CC68621] (AR v1)
Track 4 accurately ripped (confidence 1) [545D9250] (AR v1)
Track 5 accurately ripped (confidence 1) [705037F4] (AR v1)
Track 6 accurately ripped (confidence 1) [8BC78701] (AR v1)
Track 7 accurately ripped (confidence 1) [8FE01B5F] (AR v1)
Track 8 accurately ripped (confidence 1) [5532E5E7] (AR v1)
Track 9 accurately ripped (confidence 1) [B083AFF0] (AR v1)
Track 10 accurately ripped (confidence 1) [B9C70A4C] (AR v1)
Track 11 accurately ripped (confidence 1) [555A294E] (AR v1)
Track 12 accurately ripped (confidence 1) [84579993] (AR v1)
Track 13 accurately ripped (confidence 1) [9849408A] (AR v1)
All tracks accurately ripped
End of status report
---- CUETools DB Plugin V2.1.3
[CTDB TOCID: rd6Ch79fzc8NdT91d1IvpKDI.Zs-] disk not present in database, Submit result: unrecognized or virtual drive
==== Log checksum A8D1F4C34A46F401AE448C4E47D8C3F087D49060A7956996BAA5F8C16E5EB143 ====

CD2

Exact Audio Copy V1.0 beta 3 from 29. August 2011
EAC extraction logfile from 15. August 2014, 22:18
Puccini / Tosca, Tieri CD2
Used drive : TSSTcorpCDDVDW SE-208AB Adapter: 1 ID: 0
Read mode : Secure
Utilize accurate stream : Yes
Defeat audio cache : Yes
Make use of C2 pointers : No
Read offset correction : 6
Overread into Lead-In and Lead-Out : No
Fill up missing offset samples with silence : Yes
Delete leading and trailing silent blocks : No
Null samples used in CRC calculations : Yes
Used interface : Native Win32 interface for Win NT & 2000
Used output format : Monkey's Audio Lossless Encoder
Selected bitrate : High Lossless Compression
Quality : High
Add ID3 tag : No
Command line compressor : C:\Program Files (x86)\Exact Audio Copy\MAC\MAC.exe
TOC of the extracted CD
Track | Start | Length | Start sector | End sector
---------------------------------------------------------
1 | 0:00.00 | 4:39.03 | 0 | 20927
2 | 4:39.03 | 1:09.15 | 20928 | 26117
3 | 5:48.18 | 2:17.25 | 26118 | 36417
4 | 8:05.43 | 2:18.14 | 36418 | 46781
5 | 10:23.57 | 5:58.53 | 46782 | 73684
6 | 16:22.35 | 2:35.19 | 73685 | 85328
7 | 18:57.54 | 2:54.40 | 85329 | 98418
8 | 21:52.19 | 4:44.04 | 98419 | 119722
9 | 26:36.23 | 4:31.27 | 119723 | 140074
10 | 31:07.50 | 8:22.48 | 140075 | 177772
11 | 39:30.23 | 6:48.48 | 177773 | 208420
12 | 46:18.71 | 3:08.62 | 208421 | 222582
13 | 49:27.58 | 2:45.65 | 222583 | 235022
14 | 52:13.48 | 2:35.48 | 235023 | 246695
15 | 54:49.21 | 7:38.11 | 246696 | 281056
16 | 62:27.32 | 2:22.64 | 281057 | 291770
17 | 64:50.21 | 1:29.21 | 291771 | 298466
Range status and errors
Selected range
Filename D:\EAC\Puccini - Tosca, Tieri CD2.wav
Peak level 100.0 %
Extraction speed 1.9 X
Range quality 100.0 %
Test CRC 262FEF85
Copy CRC 262FEF85
Copy OK
No errors occurred
AccurateRip summary
Track 1 cannot be verified as accurate (confidence 1) [542B392C], AccurateRip returned [95E252F9] (AR v2)
Track 2 cannot be verified as accurate (confidence 1) [C9EF3401], AccurateRip returned [7CEA5C78] (AR v2)
Track 3 cannot be verified as accurate (confidence 1) [8A0E814F], AccurateRip returned [6BB1916E] (AR v2)
Track 4 cannot be verified as accurate (confidence 1) [DD176378], AccurateRip returned [88A18DBC] (AR v2)
Track 5 cannot be verified as accurate (confidence 1) [3F777572], AccurateRip returned [7BE09255] (AR v2)
Track 6 cannot be verified as accurate (confidence 1) [C66B4C65], AccurateRip returned [5684B11D] (AR v2)
Track 7 cannot be verified as accurate (confidence 1) [008B4074], AccurateRip returned [98D9749C] (AR v2)
Track 8 cannot be verified as accurate (confidence 1) [35A728B6], AccurateRip returned [A592F8A0] (AR v2)
Track 9 cannot be verified as accurate (confidence 1) [DDC63770], AccurateRip returned [2BFD5DB8] (AR v2)
Track 10 cannot be verified as accurate (confidence 1) [4000A957], AccurateRip returned [AB3B806A] (AR v2)
Track 11 cannot be verified as accurate (confidence 1) [449EE2AD], AccurateRip returned [6FD374B5] (AR v2)
Track 12 cannot be verified as accurate (confidence 1) [4D613A5D], AccurateRip returned [2616A18C] (AR v2)
Track 13 cannot be verified as accurate (confidence 1) [8484AB7F], AccurateRip returned [26DD2810] (AR v2)
Track 14 cannot be verified as accurate (confidence 1) [821D92A2], AccurateRip returned [2DF9ADA8] (AR v2)
Track 15 cannot be verified as accurate (confidence 1) [210CC633], AccurateRip returned [6162C644] (AR v2)
Track 16 cannot be verified as accurate (confidence 1) [BC66D672], AccurateRip returned [C8AACAE6] (AR v2)
Track 17 cannot be verified as accurate (confidence 1) [9134689F], AccurateRip returned [3C6544B3] (AR v2)
No tracks could be verified as accurate
You may have a different pressing from the one(s) in the database
End of status report
---- CUETools DB Plugin V2.1.3
[CTDB TOCID: U_P.e7bODG5iuKf6pMbfsefSStg-] disk not present in database, Submit result: U_P.e7bODG5iuKf6pMbfsefSStg- has been uploaded
==== Log checksum F67A1CB66365CB0B4858328B291A5524A5C301ECD3D69A84F5EDFCD4FDFE526F ====

Содержание индексной карты (.CUE)

CD1

REM GENRE Opera
REM DATE 1957
REM DISCID C20A000D
REM COMMENT "ExactAudioCopy v1.0b3"
PERFORMER "Puccini"
TITLE "Tosca, Tieri CD1"
FILE "Puccini - Tosca, Tieri CD1.ape" WAVE
TRACK 01 AUDIO
TITLE "Act I: Ah! Finalmente"
PERFORMER "Puccini"
INDEX 01 00:00:00
TRACK 02 AUDIO
TITLE "E sempre lava"
PERFORMER "Puccini"
INDEX 01 02:06:15
TRACK 03 AUDIO
TITLE "Dammi i colori"
PERFORMER "Puccini"
INDEX 01 05:33:22
TRACK 04 AUDIO
TITLE "Voi! Cavaradossi!"
PERFORMER "Puccini"
INDEX 01 09:58:03
TRACK 05 AUDIO
TITLE "Mario, Mario, Mario!"
PERFORMER "Puccini"
INDEX 01 11:01:08
TRACK 06 AUDIO
TITLE "Non la sospiri na nostra casetta"
PERFORMER "Puccini"
INDEX 01 13:55:13
TRACK 07 AUDIO
TITLE "Or lasciami al lavarosa"
PERFORMER "Puccini"
INDEX 01 16:14:32
TRACK 08 AUDIO
TITLE "Ah, guegli occhi!"
PERFORMER "Puccini"
INDEX 01 17:57:22
TRACK 09 AUDIO
TITLE "E buona la mia Tosca"
PERFORMER "Puccini"
INDEX 01 23:15:22
TRACK 10 AUDIO
TITLE "Tutta qui la cantoria!"
PERFORMER "Puccini"
INDEX 01 27:02:26
TRACK 11 AUDIO
TITLE "Un tal baccano in chiesa!"
PERFORMER "Puccini"
INDEX 01 28:17:64
TRACK 12 AUDIO
TITLE "Tosca? Che non mi veda"
PERFORMER "Puccini"
INDEX 01 32:16:53
TRACK 13 AUDIO
TITLE "Tre shirri, una carozza"
PERFORMER "Puccini"
INDEX 01 38:44:16

CD2

REM GENRE Opera
REM DATE 1957
REM DISCID 120F8B11
REM COMMENT "ExactAudioCopy v1.0b3"
PERFORMER "Puccini"
TITLE "Tosca, Tieri CD2"
FILE "Puccini - Tosca, Tieri CD2.ape" WAVE
TRACK 01 AUDIO
TITLE "Act II: Tosca è un buon falco"
PERFORMER "Puccini"
FLAGS DCP
INDEX 01 00:00:00
TRACK 02 AUDIO
TITLE "O galantuomo, come andò la caccia?"
PERFORMER "Puccini"
FLAGS DCP
INDEX 01 04:39:03
TRACK 03 AUDIO
TITLE "Sale, ascende l'uman acantico"
PERFORMER "Puccini"
FLAGS DCP
INDEX 01 05:48:18
TRACK 04 AUDIO
TITLE "Dovè Angelotti?"
PERFORMER "Puccini"
FLAGS DCP
INDEX 01 08:05:43
TRACK 05 AUDIO
TITLE "Ed or fra noi parliamo"
PERFORMER "Puccini"
FLAGS DCP
INDEX 01 10:23:57
TRACK 06 AUDIO
TITLE "Ahimé!"
PERFORMER "Puccini"
FLAGS DCP
INDEX 01 16:22:35
TRACK 07 AUDIO
TITLE "Nel pozzo, nel giardino"
PERFORMER "Puccini"
FLAGS DCP
INDEX 01 18:57:54
TRACK 08 AUDIO
TITLE "Quanto?"
PERFORMER "Puccini"
FLAGS DCP
INDEX 01 21:52:19
TRACK 09 AUDIO
TITLE "Vissi d'arte"
PERFORMER "Puccini"
FLAGS DCP
INDEX 01 26:36:23
TRACK 10 AUDIO
TITLE "Chi è là?"
PERFORMER "Puccini"
FLAGS DCP
INDEX 01 31:07:50
TRACK 11 AUDIO
TITLE "Act III: Io de sospiri"
PERFORMER "Puccini"
FLAGS DCP
INDEX 00 39:27:23
INDEX 01 39:30:23
TRACK 12 AUDIO
TITLE "Mario Cavaradossi"
PERFORMER "Puccini"
FLAGS DCP
INDEX 01 46:18:71
TRACK 13 AUDIO
TITLE "E lucevan le stelle"
PERFORMER "Puccini"
FLAGS DCP
INDEX 01 49:27:58
TRACK 14 AUDIO
TITLE "Ah! Franchigia a Floria Tosca"
PERFORMER "Puccini"
FLAGS DCP
INDEX 01 52:13:48
TRACK 15 AUDIO
TITLE "O dolci mani"
PERFORMER "Puccini"
FLAGS DCP
INDEX 01 54:49:21
TRACK 16 AUDIO
TITLE "Com'èlungi l'attesa!"
PERFORMER "Puccini"
FLAGS DCP
INDEX 01 62:27:32
TRACK 17 AUDIO
TITLE "Presto, su! Mario! Mario!"
PERFORMER "Puccini"
FLAGS DCP
INDEX 01 64:50:21



Показать сообщения:    

Текущее время: 05-Дек 19:40

Часовой пояс: UTC + 3


Вы не можете начинать темы
Вы не можете отвечать на сообщения
Вы не можете редактировать свои сообщения
Вы не можете удалять свои сообщения
Вы не можете голосовать в опросах
Вы не можете прикреплять файлы к сообщениям
Вы не можете скачивать файлы