(Opera) Joan Sutherland Best Recordings • Handel - Alcina • Bellini - Norma • Verdi - La Traviata • Donizetti - Lucia di Lammermoor - 2003, APE (image+.cue) lossless


 

[Цитировать]

Joan Sutherland Best Recordings
Жанр: Opera
Страна-производитель диска: Denmark
Год издания диска: 2003
Издатель (лейбл): Classic Options
Номер по каталогу: CD 3511
Аудиокодек: APE
Тип рипа: image+.cue
Битрейт аудио: lossless
Продолжительность: 70'21
Источник: собственный рип
Наличие сканов в содержимом раздачи: да
Треклист / Исполнители:
George Frideric Handel - Alcina
1. Di , cor mio quanto 'amai
Vincenzo Bellini - Norma
2. Casta diva
3. Fine al rito - Ah bello, a me ritorna
4. Oh rimembranza
5. Deh! con te
6. Mira, oh Norma
7. Si, fino all'ore
George Frideric Handel - Alcina
8. Alcina - Oh ruggiero..ombre pallide
Giuseppe Verdi - La Traviata
9. E strano! Ah, fors e lui
Gaetano Donizetti - Lucia di Lammermoor
10. Regnava nel silenzio quando rapita in estasi
11. Il dolce suono ardon gl'incensi
12. Spargi d'amaro pianto

Лог создания рипа

Exact Audio Copy V1.0 beta 3 from 29. August 2011
EAC extraction logfile from 15. August 2014, 12:14
Joan Sutherland / Best recordings
Used drive : TSSTcorpCDDVDW SE-208AB Adapter: 1 ID: 0
Read mode : SecureUtilize accurate stream : YesDefeat audio cache : YesMake use of C2 pointers : No
Read offset correction : 6Overread into Lead-In and Lead-Out : NoFill up missing offset samples with silence : YesDelete leading and trailing silent blocks : NoNull samples used in CRC calculations : YesUsed interface : Native Win32 interface for Win NT & 2000
Used output format : Monkey's Audio Lossless EncoderSelected bitrate : High Lossless CompressionQuality : HighAdd ID3 tag : NoCommand line compressor : C:\Program Files (x86)\Exact Audio Copy\MAC\MAC.exe
TOC of the extracted CD
Track | Start | Length | Start sector | End sector --------------------------------------------------------- 1 | 0:00.00 | 6:00.50 | 0 | 27049 2 | 6:00.50 | 5:16.08 | 27050 | 50757 3 | 11:16.58 | 4:41.02 | 50758 | 71834 4 | 15:57.60 | 6:52.70 | 71835 | 102804 5 | 22:50.55 | 3:40.21 | 102805 | 119325 6 | 26:31.01 | 3:53.35 | 119326 | 136835 7 | 30:24.36 | 3:01.25 | 136836 | 150435 8 | 33:25.61 | 6:33.13 | 150436 | 179923 9 | 39:58.74 | 8:29.42 | 179924 | 218140 10 | 48:28.41 | 8:06.55 | 218141 | 254645 11 | 56:35.21 | 10:18.65 | 254646 | 301060 12 | 66:54.11 | 3:27.28 | 301061 | 316613
Range status and errors
Selected range
Filename D:\EAC\Joan Sutherland - Best recordings.wav
Peak level 91.8 % Extraction speed 5.0 X Range quality 100.0 % Test CRC 0064B819 Copy CRC 0064B819 Copy OK
No errors occurred
AccurateRip summary
Track 1 accurately ripped (confidence 2) [A97CDE0F] (AR v1)Track 2 accurately ripped (confidence 2) [CBDA88EB] (AR v1)Track 3 accurately ripped (confidence 2) [BCEBE811] (AR v1)Track 4 accurately ripped (confidence 2) [542D8D3A] (AR v1)Track 5 accurately ripped (confidence 2) [85B6D0EC] (AR v1)Track 6 accurately ripped (confidence 2) [9D92748A] (AR v1)Track 7 accurately ripped (confidence 2) [C0636AFA] (AR v1)Track 8 accurately ripped (confidence 2) [8BC5B897] (AR v1)Track 9 accurately ripped (confidence 2) [237595D0] (AR v1)Track 10 accurately ripped (confidence 2) [00F5B0FB] (AR v1)Track 11 accurately ripped (confidence 2) [877147AB] (AR v1)Track 12 accurately ripped (confidence 2) [9AF1F2C5] (AR v1)
All tracks accurately ripped
End of status report
---- CUETools DB Plugin V2.1.3
[CTDB TOCID: _BOrRXHDpcRA4EHmnF.bbevB5qI-] disk not present in database, Submit result: _BOrRXHDpcRA4EHmnF.bbevB5qI- has been uploaded
==== Log checksum DA2E57B337DED6CCAA2B2ECC0B4867087C736FAAC63DD1AC3BD98C8F6DCFCFF9 ====

Содержание индексной карты (.CUE)

REM GENRE OperaREM DISCID A5107D0CREM COMMENT "ExactAudioCopy v1.0b3"CATALOG 0000000000000PERFORMER "Joan Sutherland"TITLE "Best recordings"FILE "Joan Sutherland - Best recordings.ape" WAVE TRACK 01 AUDIO TITLE "Haendel - Alcina - Di , cor mio quanto t'amai" PERFORMER "Joan Sutherland" INDEX 01 00:00:00 TRACK 02 AUDIO TITLE "Bellini - Norma - Casta diva" PERFORMER "Joan Sutherland" INDEX 01 06:00:50 TRACK 03 AUDIO TITLE "Bellini - Norma - Fine al rito - Ah bello, a me ritorna" PERFORMER "Joan Sutherland" INDEX 01 11:16:58 TRACK 04 AUDIO TITLE "Bellini - Norma - Oh rimembranza" PERFORMER "Joan Sutherland" INDEX 01 15:57:60 TRACK 05 AUDIO TITLE "Bellini - Norma - Deh! con te" PERFORMER "Joan Sutherland" INDEX 01 22:50:55 TRACK 06 AUDIO TITLE "Bellini - Norma - Mira, oh Norma" PERFORMER "Joan Sutherland" INDEX 01 26:31:01 TRACK 07 AUDIO TITLE "Bellini - Norma - Si, fino all'ore" PERFORMER "Joan Sutherland" INDEX 01 30:24:36 TRACK 08 AUDIO TITLE "Haendel - Alcina - Oh ruggiero..ombre pallide" PERFORMER "Joan Sutherland" INDEX 01 33:25:61 TRACK 09 AUDIO TITLE "Verdi - Traviata - E strano! Ah, fors e lui" PERFORMER "Joan Sutherland" INDEX 01 39:58:74 TRACK 10 AUDIO TITLE "Donizetti - Lucia - Regnava nel silenzio quando rapita in estasi" PERFORMER "Joan Sutherland" INDEX 01 48:28:41 TRACK 11 AUDIO TITLE "Donizetti - Lucia - Il dolce suono ardon gl'incensi" PERFORMER "Joan Sutherland" INDEX 01 56:35:21 TRACK 12 AUDIO TITLE "Donizetti - Lucia - Spargi d'amaro pianto" PERFORMER "Joan Sutherland" INDEX 01 66:54:11



Показать сообщения:    

Текущее время: 08-Дек 09:06

Часовой пояс: UTC + 3


Вы не можете начинать темы
Вы не можете отвечать на сообщения
Вы не можете редактировать свои сообщения
Вы не можете удалять свои сообщения
Вы не можете голосовать в опросах
Вы не можете прикреплять файлы к сообщениям
Вы не можете скачивать файлы