(Classical) Philip Glass (Филип Гласс) - Violin Concerto; Prelude and Dance from Akhnaten; Company - Adele Anthony, Ulster Orchestra, Takuo Yuasa - 2000, FLAC (image+.cue) lossless


Статистика раздачи [Обновить пиров]
Размер:  225 MB   |    Зарегистрирован:  1 год 1 месяц   |    Скачан:  2 раза

Полного источника не было: 9 дней

 
   
 
 
 

[Цитировать]

Philip Glass - Violin Concerto; Prelude and Dance from Akhnaten; Company - Adele Anthony, Ulster Orchestra, Takuo Yuasa
Жанр: Classical
Год издания диска: 2000
Издатель (лейбл): Naxos
Номер по каталогу: 8.559056
Дата записи: 1999
Аудиокодек: FLAC
Тип рипа: image+.cue
Битрейт аудио: lossless
Продолжительность: 51:46
Источник: собственный рип
Наличие сканов в содержимом раздачи: да
Треклист:
Philip Glass (b.1937)
[1]-[4] Company
[5]-[7] Violin Concerto
Akhnaten
[8] Prelude
[9] Dance (Act II Scene III)
Исполнители:
Adele Anthony violin
Ulster Orchestra
Takuo Yuasa
conductor

Лог создания рипа

Exact Audio Copy V1.0 beta 3 from 29. August 2011
EAC extraction logfile from 27. January 2015, 0:58
Adele Anthony, Ulster Orchestra, Takuo Yuasa / Philip Glass - Violin Concerto; Company
Used drive : HL-DT-STDVDRAM GU70N Adapter: 0 ID: 0
Read mode : SecureUtilize accurate stream : YesDefeat audio cache : YesMake use of C2 pointers : No
Read offset correction : 48Overread into Lead-In and Lead-Out : NoFill up missing offset samples with silence : YesDelete leading and trailing silent blocks : NoNull samples used in CRC calculations : YesUsed interface : Native Win32 interface for Win NT & 2000
Used output format : User Defined EncoderSelected bitrate : 128 kBit/sQuality : HighAdd ID3 tag : NoCommand line compressor : C:\Program Files (x86)\Exact Audio Copy\Flac\flac.exeAdditional command line options : -V -8 -T "Date=%year%" -T "Genre=%genre%" %source%
TOC of the extracted CD
Track | Start | Length | Start sector | End sector --------------------------------------------------------- 1 | 0:00.00 | 2:33.30 | 0 | 11504 2 | 2:33.30 | 1:56.27 | 11505 | 20231 3 | 4:29.57 | 1:50.18 | 20232 | 28499 4 | 6:20.00 | 2:41.17 | 28500 | 40591 5 | 9:01.17 | 6:51.18 | 40592 | 71434 6 | 15:52.35 | 8:32.35 | 71435 | 109869 7 | 24:24.70 | 9:28.02 | 109870 | 152471 8 | 33:52.72 | 12:16.13 | 152472 | 207684 9 | 46:09.10 | 5:34.65 | 207685 | 232799
Range status and errors
Selected range
Filename C:\temp\Naxos_8.559056 - Glass - Violin Concerto; Company\Glass - Violin Concerto; Company.wav
Peak level 98.3 % Extraction speed 5.1 X Range quality 100.0 % Test CRC 1C0ECC99 Copy CRC 1C0ECC99 Copy OK
No errors occurred
AccurateRip summary
Track 1 accurately ripped (confidence 28) [394949AF] (AR v2)Track 2 accurately ripped (confidence 28) [9D39B44B] (AR v2)Track 3 accurately ripped (confidence 28) [749515C2] (AR v2)Track 4 accurately ripped (confidence 28) [86EB3F22] (AR v2)Track 5 accurately ripped (confidence 28) [51B99410] (AR v2)Track 6 accurately ripped (confidence 28) [A0696B7F] (AR v2)Track 7 accurately ripped (confidence 28) [AE8C13B3] (AR v2)Track 8 accurately ripped (confidence 28) [E9489F3C] (AR v2)Track 9 accurately ripped (confidence 28) [F8C9516A] (AR v2)
All tracks accurately ripped
End of status report
==== Log checksum A212BE908F92D36D37CB1B323D5D85CD4385884FAC4B8889163016F952211BDC ====
[teatrix.ru].t9820.torrent 
Торрент: Зарегистрирован [ 2015-10-25 20:37 ] · 64247956BAAB52F95A400DB85DAFD0D0861413FC

Скачать .torrent

Скачать

36 KB

Статус: проверено
Скачан: 2 раз
Размер: 225 MB
terms.php



Быстрый ответ

Имя:

      
Для отправки сообщений необходимо включить JavaScript
Показать сообщения:    

Текущее время: 08-Дек 19:11

Часовой пояс: UTC + 3


Вы можете начинать темы
Вы можете отвечать на сообщения
Вы не можете редактировать свои сообщения
Вы не можете удалять свои сообщения
Вы не можете голосовать в опросах
Вы не можете прикреплять файлы к сообщениям
Вы можете скачивать файлы