(Classical, contemporary) Vivian Fung - Violin Concerto; Glimpes; Piano Concerto 'Dreamscapes' - Kristin Lee, Conor Hanick, Metropolis Ensemble, Andrew Cyr - 2012, FLAC (image+.cue) lossless


Статистика раздачи [Обновить пиров]
Размер:  210 MB   |    Зарегистрирован:  1 год 1 месяц   |    Скачан:  0 раз

Полного источника не было: Никогда

 
   
 
 
 

[Цитировать]

Vivian Fung - Violin Concerto; Glimpes; Piano Concerto 'Dreamscapes' - Kristin Lee, Conor Hanick, Metropolis Ensemble, Andrew Cyr
Жанр: Classical, contemporary
Год издания диска: 2012
Издатель (лейбл): Naxos
Номер по каталогу: 8.573009
Дата записи: 2011
Аудиокодек: FLAC
Тип рипа: image+.cue
Битрейт аудио: lossless
Продолжительность: 57:11
Источник: собственный рип
Наличие сканов в содержимом раздачи: да
Треклист:
Vivian Fung (b.1975)
[1] Violin Concerto (2010-11)
[2]-[4] Glimpses for prepared piano (2006)
[5] Piano Concerto 'Dreamscapes' (2009)
Исполнители:
Kristin Lee violin [1]
Conor Hanick piano [2]-[5]
Metropolis Ensemble [1], [5]
Andrew Cyr

Лог создания рипа

Exact Audio Copy V1.0 beta 3 from 29. August 2011
EAC extraction logfile from 27. January 2015, 0:12
Conor Hanick, Metropolis Ensemble, Andrew Cyr / Vivian Fung - Dreamscapes
Used drive : HL-DT-STDVDRAM GU70N Adapter: 0 ID: 0
Read mode : SecureUtilize accurate stream : YesDefeat audio cache : YesMake use of C2 pointers : No
Read offset correction : 48Overread into Lead-In and Lead-Out : NoFill up missing offset samples with silence : YesDelete leading and trailing silent blocks : NoNull samples used in CRC calculations : YesUsed interface : Native Win32 interface for Win NT & 2000
Used output format : User Defined EncoderSelected bitrate : 128 kBit/sQuality : HighAdd ID3 tag : NoCommand line compressor : C:\Program Files (x86)\Exact Audio Copy\Flac\flac.exeAdditional command line options : -V -8 -T "Date=%year%" -T "Genre=%genre%" %source%
TOC of the extracted CD
Track | Start | Length | Start sector | End sector --------------------------------------------------------- 1 | 0:00.00 | 20:55.48 | 0 | 94172 2 | 20:55.48 | 3:23.45 | 94173 | 109442 3 | 24:19.18 | 2:31.60 | 109443 | 120827 4 | 26:51.03 | 4:41.68 | 120828 | 141970 5 | 31:32.71 | 25:36.04 | 141971 | 257174
Range status and errors
Selected range
Filename C:\temp\Naxos_8.573009 - Vivian Fung - Dreamscapes\Vivian Fung - Dreamscapes.wav
Peak level 98.8 % Extraction speed 5.2 X Range quality 100.0 % Test CRC 609B6CCD Copy CRC 609B6CCD Copy OK
No errors occurred
AccurateRip summary
Track 1 accurately ripped (confidence 3) [70205FB3] (AR v2)Track 2 accurately ripped (confidence 3) [E16C20A9] (AR v2)Track 3 accurately ripped (confidence 3) [BD64BFDD] (AR v2)Track 4 accurately ripped (confidence 3) [0BFF8247] (AR v2)Track 5 accurately ripped (confidence 3) [BB9A5AD5] (AR v2)
All tracks accurately ripped
End of status report
==== Log checksum 6A5B2C105C370C36929DB39B9133D2749C72EB7A1210E734FB6B9FCD9B936EBF ====
[teatrix.ru].t9821.torrent 
Торрент: Зарегистрирован [ 2015-10-25 20:37 ] · F4C283214EBB0F55FFDA2919544DB4142884CCA8

Скачать .torrent

Скачать

34 KB

Статус: проверено
Скачан: 0 раз
Размер: 210 MB
terms.php



Быстрый ответ

Имя:

      
Для отправки сообщений необходимо включить JavaScript
Показать сообщения:    

Текущее время: 07-Дек 15:26

Часовой пояс: UTC + 3


Вы можете начинать темы
Вы можете отвечать на сообщения
Вы не можете редактировать свои сообщения
Вы не можете удалять свои сообщения
Вы не можете голосовать в опросах
Вы не можете прикреплять файлы к сообщениям
Вы можете скачивать файлы