(Classical) Franz Liszt - Totentanz; Piano Concertos Nos. 1 & 2 - Arnaldo Cohen, Sao Paulo Symphony Orchestra, John Neschling - 2007, FLAC (image+.cue) lossless


Статистика раздачи [Обновить пиров]
Размер:  211 MB   |    Зарегистрирован:  1 год 1 месяц   |    Скачан:  0 раз

Полного источника не было: Никогда

 
   
 
 
 

[Цитировать]

Franz Liszt - Totentanz; Piano Concertos Nos. 1 & 2 - Arnaldo Cohen, São Paulo Symphony Orchestra, John Neschling
Жанр: Classical
Страна-производитель диска: Sweden
Год издания диска: 2007
Издатель (лейбл): BIS
Номер по каталогу: BIS-SACD-1530
Дата записи: 2005
Аудиокодек: FLAC
Тип рипа: image+.cue
Битрейт аудио: lossless
Продолжительность: 57:08
Источник: собственный рип
Наличие сканов в содержимом раздачи: да
Треклист:
Ferenc - Franz Liszt (1811–1886)
[1]-[10] Totentanz (1849/59)
Paraphrase on ‘Dies iræ’ for piano and orchestra
[11]-[14] Piano Concerto No. 1 in E flat major (1839/1849–56)
[15]-[20] Piano Concerto No. 2 in A major (1839/1849–61)
Исполнители:
Arnaldo Cohen piano
São Paulo Symphony Orchestra (OSESP)
John Neschling
conductor

Лог создания рипа

Exact Audio Copy V1.0 beta 3 from 29. August 2011
EAC extraction logfile from 27. January 2015, 2:10
Arnaldo Cohen, OSESP, John Neschling / Liszt - Piano Concertos
Used drive : HL-DT-STDVDRAM GU70N Adapter: 0 ID: 0
Read mode : SecureUtilize accurate stream : YesDefeat audio cache : YesMake use of C2 pointers : No
Read offset correction : 48Overread into Lead-In and Lead-Out : NoFill up missing offset samples with silence : YesDelete leading and trailing silent blocks : NoNull samples used in CRC calculations : YesUsed interface : Native Win32 interface for Win NT & 2000
Used output format : User Defined EncoderSelected bitrate : 128 kBit/sQuality : HighAdd ID3 tag : NoCommand line compressor : C:\Program Files (x86)\Exact Audio Copy\Flac\flac.exeAdditional command line options : -V -8 -T "Date=%year%" -T "Genre=%genre%" %source%
TOC of the extracted CD
Track | Start | Length | Start sector | End sector --------------------------------------------------------- 1 | 0:00.00 | 2:04.40 | 0 | 9339 2 | 2:04.40 | 0:50.52 | 9340 | 13141 3 | 2:55.17 | 0:40.58 | 13142 | 16199 4 | 3:36.00 | 0:27.61 | 16200 | 18285 5 | 4:03.61 | 3:16.25 | 18286 | 33010 6 | 7:20.11 | 2:48.44 | 33011 | 45654 7 | 10:08.55 | 1:10.38 | 45655 | 50942 8 | 11:19.18 | 2:39.22 | 50943 | 62889 9 | 13:58.40 | 0:41.40 | 62890 | 66004 10 | 14:40.05 | 0:57.39 | 66005 | 70318 11 | 15:37.44 | 5:41.74 | 70319 | 95967 12 | 21:19.43 | 4:56.50 | 95968 | 118217 13 | 26:16.18 | 4:11.29 | 118218 | 137071 14 | 30:27.47 | 4:24.24 | 137072 | 156895 15 | 34:51.71 | 6:55.26 | 156896 | 188046 16 | 41:47.22 | 5:55.44 | 188047 | 214715 17 | 47:42.66 | 2:53.23 | 214716 | 227713 18 | 50:36.14 | 1:07.18 | 227714 | 232756 19 | 51:43.32 | 3:08.19 | 232757 | 246875 20 | 54:51.51 | 2:18.11 | 246876 | 257236
Range status and errors
Selected range
Filename C:\temp\BIS-SACD-1530 - Liszt - Piano Concertos; Totentanz\Liszt - Piano Concertos.wav
Peak level 99.3 % Extraction speed 2.2 X Range quality 100.0 % Test CRC 21435709 Copy CRC 21435709 Copy OK
No errors occurred
AccurateRip summary
Track 1 accurately ripped (confidence 8) [3ACCB1E7] (AR v2)Track 2 accurately ripped (confidence 8) [1ED6B0D5] (AR v2)Track 3 accurately ripped (confidence 8) [9DD6C843] (AR v2)Track 4 accurately ripped (confidence 8) [DBE7F8CB] (AR v2)Track 5 accurately ripped (confidence 8) [DAB3AF6C] (AR v2)Track 6 accurately ripped (confidence 8) [E13CD1CD] (AR v2)Track 7 accurately ripped (confidence 8) [D678B114] (AR v2)Track 8 accurately ripped (confidence 8) [900BAD89] (AR v2)Track 9 accurately ripped (confidence 8) [C3486824] (AR v2)Track 10 accurately ripped (confidence 8) [DFFE834B] (AR v2)Track 11 accurately ripped (confidence 8) [AFC85ABB] (AR v2)Track 12 accurately ripped (confidence 8) [838F4CE0] (AR v2)Track 13 accurately ripped (confidence 8) [E500C09C] (AR v2)Track 14 accurately ripped (confidence 8) [965CC495] (AR v2)Track 15 accurately ripped (confidence 8) [8AFE87B2] (AR v2)Track 16 accurately ripped (confidence 8) [260147B4] (AR v2)Track 17 accurately ripped (confidence 8) [9DC59236] (AR v2)Track 18 accurately ripped (confidence 8) [2791FB42] (AR v2)Track 19 accurately ripped (confidence 8) [ECBEBE6E] (AR v2)Track 20 accurately ripped (confidence 8) [07DD4AE1] (AR v2)
All tracks accurately ripped
End of status report
==== Log checksum 9029BC793994845893B87777E9935F0FBFFFC81259A2077A6CCA48CB3E2A3679 ====
[teatrix.ru].t9822.torrent 
Торрент: Зарегистрирован [ 2015-10-25 20:37 ] · C27558619B5AB2562E94B333ED88D37ABC0F5667

Скачать .torrent

Скачать

34 KB

Статус: проверено
Скачан: 0 раз
Размер: 211 MB
terms.php



Быстрый ответ

Имя:

      
Для отправки сообщений необходимо включить JavaScript
Показать сообщения:    

Текущее время: 05-Дек 19:38

Часовой пояс: UTC + 3


Вы можете начинать темы
Вы можете отвечать на сообщения
Вы не можете редактировать свои сообщения
Вы не можете удалять свои сообщения
Вы не можете голосовать в опросах
Вы не можете прикреплять файлы к сообщениям
Вы можете скачивать файлы