(Classical) Brahms, Mozart - Violin Concerto; Sinfonia Concertante (Давид & Игорь Ойстрах, Klemperer) - 2001, FLAC (image+.cue) lossless


Статистика раздачи [Обновить пиров]
Размер:  329 MB   |    Зарегистрирован:  1 год 1 месяц   |    Скачан:  0 раз

Полного источника не было: Никогда

 
   
 
 
 

[Цитировать]

Brahms, Mozart - Violin Concerto; Sinfonia Concertante (David & Igor Oistrakh, Klemperer)
Жанр: Classical
Страна-производитель диска: Российская Федерация
Год издания диска: 2001
Издатель (лейбл): Classic Collection
Номер по каталогу: 460357465929
Дата записи: 1960, 1972
Аудиокодек: FLAC
Тип рипа: image+.cue
Битрейт аудио: lossless
Продолжительность: 72:24
Источник: собственный рип
сайт-источник/ник/другое: Из личной коллекции
Наличие сканов в содержимом раздачи: да
Треклист:
Wolfgang Amadeus Mozart (1756-1791)
Sinfonia Concertante for Violin, Viola and Orchestra in E-flat major, K. 364
1. I. Allegro maestoso
2. II. Andante
3. III. Presto
Johannes Brahms (1833-1897)
Violin Concerto in D major, Op. 77
4. I. Allegro non troppo
5. II. Adagio
6. III. Allegro giocoso, ma non troppo vivace - Poco più presto
Исполнители:
1-3трек
David Oistrakh, violin
Orchestre National de la Radiodiffusion Francaise cond. Otto Klemperer
4-6трек
David Oistrakh, viola
Igor Oistrakh, violin
Berliner Philharmoniker cond. David Oistrakh

Лог создания рипа

Exact Audio Copy V1.0 beta 3 from 29. August 2011
EAC extraction logfile from 15. January 2015, 19:20
OISTRAKH, David, OISTRAKH, Igor KLEMPERER, Otto / Brahms Concerto Pour Violon Et Orchestre & Mozart Sinfonie Concertante
Used drive : HL-DT-STDVDRAM GSA-T40N Adapter: 0 ID: 0
Read mode : SecureUtilize accurate stream : YesDefeat audio cache : YesMake use of C2 pointers : No
Read offset correction : 667Overread into Lead-In and Lead-Out : NoFill up missing offset samples with silence : YesDelete leading and trailing silent blocks : NoNull samples used in CRC calculations : YesUsed interface : Native Win32 interface for Win NT & 2000
Used output format : User Defined EncoderSelected bitrate : 32 kBit/sQuality : HighAdd ID3 tag : NoCommand line compressor : C:\Program Files\Exact Audio Copy\Flac\flac.exeAdditional command line options : -V -8 -T "Date=%year%" -T "Genre=%genre%" %source%
TOC of the extracted CD
Track | Start | Length | Start sector | End sector --------------------------------------------------------- 1 | 0:00.33 | 22:36.35 | 33 | 101767 2 | 22:36.68 | 9:50.17 | 101768 | 146034 3 | 32:27.10 | 8:33.20 | 146035 | 184529 4 | 41:00.30 | 13:26.45 | 184530 | 245024 5 | 54:27.00 | 11:57.70 | 245025 | 298869 6 | 66:24.70 | 6:10.23 | 298870 | 326642
Range status and errors
Selected range
Filename D:\Rip\Brahms.Violin_Concerto;Mozart.Sinfonia_Concertante-David&Igor_Oistrakh,Klemperer,1960,1972\OISTRAKH, David, OISTRAKH, Igor KLEMPERER, Otto - Brahms Concerto Pour Violon Et Orchestre & Mozart Sinfonie Concertante.wav
Peak level 97.7 % Extraction speed 4.3 X Range quality 100.0 % Test CRC 6D7FB646 Copy CRC 6D7FB646 Copy OK
No errors occurred
AccurateRip summary
Track 1 cannot be verified as accurate (confidence 26) [6C9EC2F5], AccurateRip returned [0004C105] (AR v2)Track 2 cannot be verified as accurate (confidence 26) [434AFD79], AccurateRip returned [CA0674A4] (AR v2)Track 3 cannot be verified as accurate (confidence 26) [3AA88498], AccurateRip returned [0A87EE91] (AR v2)Track 4 cannot be verified as accurate (confidence 24) [7BD684AE], AccurateRip returned [F1F7E53F] (AR v2)Track 5 cannot be verified as accurate (confidence 24) [1CB5BD0B], AccurateRip returned [063FF8C4] (AR v2)Track 6 cannot be verified as accurate (confidence 24) [0536A97D], AccurateRip returned [89DF68FA] (AR v2)
No tracks could be verified as accurateYou may have a different pressing from the one(s) in the database
End of status report
==== Log checksum EE63C67ECAD2125B4460A27944B300B6709A7D8D6FE0D520F005AFCDA58E0EA5 ====

Содержание индексной карты (.CUE)

REM GENRE ClassicalREM DATE 2001REM DISCID 66110306REM COMMENT "ExactAudioCopy v1.0b3"PERFORMER "OISTRAKH, David, OISTRAKH, Igor KLEMPERER, Otto"TITLE "Brahms Concerto Pour Violon Et Orchestre & Mozart Sinfonie Concertante"FILE "OISTRAKH, David, OISTRAKH, Igor KLEMPERER, Otto - Brahms Concerto Pour Violon Et Orchestre & Mozart Sinfonie Concertante.flac" WAVE TRACK 01 AUDIO TITLE "Concerto Pour Violon Et Orchestre, Op.77 - I. Allegro Non Troppo (Cadenza. Jo..." PERFORMER "OISTRAKH, David, OISTRAKH, Igor KLEMPERER, Otto" INDEX 00 00:00:00 INDEX 01 00:00:33 TRACK 02 AUDIO TITLE "Concerto Pour Violon Et Orchestre, Op.77 - II. Adagio" PERFORMER "OISTRAKH, David, OISTRAKH, Igor KLEMPERER, Otto" INDEX 00 22:32:13 INDEX 01 22:36:68 TRACK 03 AUDIO TITLE "Concerto Pour Violon Et Orchestre, Op.77 - III. Allegro Giocoso, Ma Non Tropp..." PERFORMER "OISTRAKH, David, OISTRAKH, Igor KLEMPERER, Otto" INDEX 00 32:23:65 INDEX 01 32:27:10 TRACK 04 AUDIO TITLE "Mozart Sinfonia Concertante In E Flat, K.364 - I. Allegro Maestoso" PERFORMER "OISTRAKH, David, OISTRAKH, Igor KLEMPERER, Otto" INDEX 00 40:52:33 INDEX 01 41:00:30 TRACK 05 AUDIO TITLE "Mozart Sinfonia Concertante In E Flat, K.364 - II. Andante" PERFORMER "OISTRAKH, David, OISTRAKH, Igor KLEMPERER, Otto" INDEX 00 54:20:05 INDEX 01 54:27:00 TRACK 06 AUDIO TITLE "Mozart Sinfonia Concertante In E Flat, K.364 - III. Presto (Cadenzas. Mozart)" PERFORMER "OISTRAKH, David, OISTRAKH, Igor KLEMPERER, Otto" INDEX 00 66:19:40 INDEX 01 66:24:70
Доп. информация: Recorded in 1960, 1972
[teatrix.ru].t9823.torrent 
Торрент: Зарегистрирован [ 2015-10-25 20:37 ] · E489E8666C94F4CC237453A781604AD7A46FB243

Скачать .torrent

Скачать

14 KB

Статус: проверено
Скачан: 0 раз
Размер: 329 MB
terms.php



Быстрый ответ

Имя:

      
Для отправки сообщений необходимо включить JavaScript
Показать сообщения:    

Текущее время: 09-Дек 08:47

Часовой пояс: UTC + 3


Вы можете начинать темы
Вы можете отвечать на сообщения
Вы не можете редактировать свои сообщения
Вы не можете удалять свои сообщения
Вы не можете голосовать в опросах
Вы не можете прикреплять файлы к сообщениям
Вы можете скачивать файлы