(Classical) Aram Khachaturian / Арам Хачатурян - Piano Concerto in D flat; Sonatina; Toccata (Alberto Portugheis, London Symphony Orchestra, Loris Tjeknavorian) Asv Gold 3037 - 2004, FLAC (tracks+.cue) lossless


Статистика раздачи [Обновить пиров]
Размер:  180 MB   |    Зарегистрирован:  1 год 2 месяца   |    Скачан:  0 раз

Полного источника не было: Никогда

 
   
 
 
 

[Цитировать]

Aram Khachaturian / Арам Хачатурян - Piano Concerto in D flat; Sonatina; Toccata
Жанр: Classical
Год издания диска: 2004
Издатель (лейбл): Asv Gold
Номер по каталогу: 3037
Дата записи: 2004
Аудиокодек: FLAC
Тип рипа: tracks+.cue
Битрейт аудио: lossless
Продолжительность: 00:49:42
Источник: собственный рип
Наличие сканов в содержимом раздачи: да
Исполнители:
Alberto Portugheis - piano
London Symphony Orchestra
Loris Tjeknavorian
Треклист:
Piano Concerto in D flat major (1936)
01. I Allegro ma non troppo (15:05)
02. II Andante con anima (11:26)
03. III Allegro brillante (10:03)
Sonatina (1959)
04. I Allegro giocoso (01:55)
05. II Andante con anima, rubato (03:12)
06. III Allegro mosso (03:28)
07. Toccata (1932) (04:33)

LOG EAC CD:

Exact Audio Copy V1.0 beta 3 from 29. August 2011
EAC extraction logfile from 25. January 2015, 15:15
Portugheis, Tjeknavorian, LSO / Khachaturian- Piano Concerto, Sonatina, Toccata
Used drive : PIONEER DVD-RW DVR-221L Adapter: 2 ID: 0
Read mode : SecureUtilize accurate stream : YesDefeat audio cache : YesMake use of C2 pointers : No
Read offset correction : 6Overread into Lead-In and Lead-Out : NoFill up missing offset samples with silence : YesDelete leading and trailing silent blocks : NoNull samples used in CRC calculations : YesUsed interface : Installed external ASPI interfaceGap handling : Appended to previous track
Used output format : User Defined EncoderSelected bitrate : 768 kBit/sQuality : HighAdd ID3 tag : NoCommand line compressor : C:\Program Files\Exact Audio Copy\Flac\flac.exeAdditional command line options : -6 -V -T "ARTIST=%artist%" -T "TITLE=%title%" -T "ALBUM=%albumtitle%" -T "DATE=%year%" -T "TRACKNUMBER=%tracknr%" -T "GENRE=%genre%" -T "COMMENT=%comment%" -T "ALBUMARTIST=%albuminterpret%" -T "COMPOSER=%composer%" -T "DISCNUMBER=%cdnumber%" -T "TOTALDISCS=%totalcds%" -T "TOTALTRACKS=%numtracks%" %source% -o %dest%
TOC of the extracted CD
Track | Start | Length | Start sector | End sector --------------------------------------------------------- 1 | 0:00.00 | 15:04.60 | 0 | 67859 2 | 15:04.60 | 11:25.50 | 67860 | 119284 3 | 26:30.35 | 10:03.10 | 119285 | 164519 4 | 36:33.45 | 1:54.60 | 164520 | 173129 5 | 38:28.30 | 3:11.60 | 173130 | 187514 6 | 41:40.15 | 3:27.73 | 187515 | 203112 7 | 45:08.13 | 4:33.00 | 203113 | 223587
Track 1
Filename D:\EAC\01 - Piano Concerto in D flat major (1936) - I Allegro ma non troppo.wav
Pre-gap length 0:00:02.00
Peak level 100.0 % Extraction speed 6.0 X Track quality 100.0 % Test CRC 7E4387D2 Copy CRC 7E4387D2 Cannot be verified as accurate (confidence 2) [FA3794F4], AccurateRip returned [C78B9CB3] (AR v2) Copy OK
Track 2
Filename D:\EAC\02 - II Andante con anima.wav
Peak level 72.3 % Extraction speed 7.4 X Track quality 100.0 % Test CRC 9E53B3A5 Copy CRC 9E53B3A5 Cannot be verified as accurate (confidence 2) [83FC88E3], AccurateRip returned [FAF15FF2] (AR v2) Copy OK
Track 3
Filename D:\EAC\03 - III Allegro brillante.wav
Peak level 100.0 % Extraction speed 8.2 X Track quality 100.0 % Test CRC E2835C34 Copy CRC E2835C34 Cannot be verified as accurate (confidence 2) [ED6203C5], AccurateRip returned [7DBA6F0A] (AR v2) Copy OK
Track 4
Filename D:\EAC\04 - Sonatina (1959) - I Allegro giocoso.wav
Peak level 62.4 % Extraction speed 6.7 X Track quality 100.0 % Test CRC BBEF34CD Copy CRC BBEF34CD Cannot be verified as accurate (confidence 2) [D3A2FD81], AccurateRip returned [3C166797] (AR v2) Copy OK
Track 5
Filename D:\EAC\05 - II Andante con anima, rubato.wav
Peak level 25.6 % Extraction speed 7.8 X Track quality 100.0 % Test CRC 24249FE6 Copy CRC 24249FE6 Cannot be verified as accurate (confidence 2) [820D7F25], AccurateRip returned [DB51DB6B] (AR v2) Copy OK
Track 6
Filename D:\EAC\06 - III Allegro mosso.wav
Peak level 58.4 % Extraction speed 7.7 X Track quality 100.0 % Test CRC 102EFEC8 Copy CRC 102EFEC8 Cannot be verified as accurate (confidence 2) [DB2D47AF], AccurateRip returned [D43BDD30] (AR v2) Copy OK
Track 7
Filename D:\EAC\07 - Toccata (1932).wav
Peak level 72.7 % Extraction speed 8.5 X Track quality 100.0 % Test CRC AF815690 Copy CRC AF815690 Cannot be verified as accurate (confidence 2) [73BBEA21], AccurateRip returned [3E81A807] (AR v2) Copy OK
No tracks could be verified as accurateYou may have a different pressing from the one(s) in the database
No errors occurred
End of status report
==== Log checksum 103E566E73465D937F9EB119135173CAE96E35E6F2C1E83C7AE776AE5F34308C ====

LOG (.CUE):

REM GENRE ClassicalREM DATE 2004REM DISCID 4C0BA507REM COMMENT "ExactAudioCopy v1.0b3"PERFORMER "Portugheis, Tjeknavorian, LSO"TITLE "Khachaturian- Piano Concerto, Sonatina, Toccata"FILE "01 - Piano Concerto in D flat major (1936) - I Allegro ma non troppo.wav" WAVE TRACK 01 AUDIO TITLE "Piano Concerto in D flat major (1936) - I Allegro ma non troppo" PERFORMER "Portugheis, Tjeknavorian, LSO" INDEX 01 00:00:00FILE "02 - II Andante con anima.wav" WAVE TRACK 02 AUDIO TITLE "II Andante con anima" PERFORMER "Portugheis, Tjeknavorian, LSO" INDEX 01 00:00:00FILE "03 - III Allegro brillante.wav" WAVE TRACK 03 AUDIO TITLE "III Allegro brillante" PERFORMER "Portugheis, Tjeknavorian, LSO" INDEX 01 00:00:00FILE "04 - Sonatina (1959) - I Allegro giocoso.wav" WAVE TRACK 04 AUDIO TITLE "Sonatina (1959) - I Allegro giocoso" PERFORMER "Portugheis, Tjeknavorian, LSO" INDEX 01 00:00:00FILE "05 - II Andante con anima, rubato.wav" WAVE TRACK 05 AUDIO TITLE "II Andante con anima, rubato" PERFORMER "Portugheis, Tjeknavorian, LSO" INDEX 01 00:00:00FILE "06 - III Allegro mosso.wav" WAVE TRACK 06 AUDIO TITLE "III Allegro mosso" PERFORMER "Portugheis, Tjeknavorian, LSO" INDEX 01 00:00:00FILE "07 - Toccata (1932).wav" WAVE TRACK 07 AUDIO TITLE "Toccata (1932)" PERFORMER "Portugheis, Tjeknavorian, LSO" INDEX 01 00:00:00
[teatrix.ru].t9824.torrent 
Торрент: Зарегистрирован [ 2015-10-25 20:37 ] · 547C9FA9EDBC5D50C946BFA639BB86C032BCE196

Скачать .torrent

Скачать

16 KB

Статус: проверено
Скачан: 0 раз
Размер: 180 MB
terms.php



Быстрый ответ

Имя:

      
Для отправки сообщений необходимо включить JavaScript
Показать сообщения:    

Текущее время: 19-Янв 16:03

Часовой пояс: UTC + 3


Вы можете начинать темы
Вы можете отвечать на сообщения
Вы не можете редактировать свои сообщения
Вы не можете удалять свои сообщения
Вы не можете голосовать в опросах
Вы не можете прикреплять файлы к сообщениям
Вы можете скачивать файлы