(Concert) Анри Вьетан (Henri Vieuxtemps) - Complete Violin Concertos (Patrick Davin) - 2010, APE (image+.cue) lossless


Статистика раздачи [Обновить пиров]
Размер:  847 MB   |    Зарегистрирован:  1 год 1 месяц   |    Скачан:  0 раз

Полного источника не было: Никогда

 
   
 
 
 

[Цитировать]

Complete Violin Concertos
Henri Vieuxtemps- Жанр: Concert
Страна-производитель диска: Austria
Год издания диска: 2010
Издатель (лейбл): Fuga Libera
Номер по каталогу: FUG575
Дата записи: 2010
Аудиокодек: APE
Тип рипа: image+.cue
Битрейт аудио: lossless
Продолжительность: 3 CD - 3h 09,31
Источник: собственный рип
Наличие сканов в содержимом раздачи: нет-Исполнители:
Vineta Sareika (violin) - Tr. 1-3 (CD 1)
Hrashya Avanesyan (violin) - Tr. 4-6 (CD 1)
Nikita Boriso-Glebsky (violin) - Tr.1-3 (CD 2)
Lorenzo Gatto (violin) - Tr. 4-7 (CD 2)
Yossif Ivanov (violin) - Tr. 1 (CD 3)
Jolente De Mayer (violin) - Tr. 2-5 (CD 3)
Harriet Langley (violin) - Tr. 6-8 (CD 3)
Orchestre Philharmonique Royal de Liege (Patrick Davin).-

Треклист

CD 1:Concerto pour violin et orchestre #1 op. 10 en mi majeur Track 1. I. Allegro moderato Track 2. II. Introduction: Adagio Track 3. III. Rondo: Allegretto
Concerto pour violin et orchestre #2 op. 19 en fa diese mineur Track 4. I. Allegro Track 5. II. Andante Track 6. III. Rondo: Allegro
CD 2:Concerto pour violin et orchestre #3 op. 25 en la majeur Track 1. I. Allegro Track 2. II. Adagio Track 3. III. Rondo: Allegretto
Concerto pour violin et orchestre #4 op. 31 en re mineur Track 4. I. Andante Track 5. II. Adagio religioso Track 6. III. Scherzo vivace-Trio meno mosso-Tempo 1 Track 7. IV. Finale marziale: Andante-Allegro
CD 3:Concerto pour violin et orchestre #5 op. 37 en la mineur Track 1. Allegro non troppo-Adagio-Allegro con fuoco
Concerto pour violin et orchestre #6 op. 47 en sol majeur Track 2. I. Allegro moderato Track 3. II. Pastorale: Andante con moto Track 4. III. Intermezzo: Siciliano Track 5. IV. Rondo Final: Allegretto
Concerto pour violin et orchestre #7 op. 49 en la mineur Track 6. I. Modeato Track 7. II. Melancolie: Andante sostenuto Track 8. III. Finale: Allegro vivo

Лог создания рипаCD 1

Exact Audio Copy V1.0 beta 4 from 7. December 2014
Отчёт EAC об извлечении, выполненном 25. января 2015, 7:35
Orchestre Philharmonique Royal de Liège / Henri Vieuxtemps - Complete Violin Concertos
Дисковод: hp DVD A DS8A8SH Adapter: 1 ID: 0
Режим чтения : ДостоверностьИспользование точного потока : ДаОтключение кэша аудио : ДаИспользование указателей C2 : Нет
Коррекция смещения при чтении : 6Способность читать области Lead-in и Lead-out : НетЗаполнение пропущенных сэмплов тишиной : ДаУдаление блоков с тишиной в начале и конце : НетПри вычислениях CRC использовались нулевые сэмплы : ДаИнтерфейс : Встроенный Win32-интерфейс для Win NT/2000
Выходной формат : Пользовательский кодировщикВыбранный битрейт : 128 kBit/sКачество : ВысокийДобавление ID3-тега : НетУтилита сжатия : C:\Program Files (x86)\Monkey's Audio\MAC.exeДополнительные параметры : %source% %dest% -c3000
TOC извлечённого CD
Трек | Старт | Длительность | Начальный сектор | Конечный сектор --------------------------------------------------------------------- 1 | 0:00.00 | 22:47.34 | 0 | 102558 2 | 22:47.34 | 3:16.53 | 102559 | 117311 3 | 26:04.12 | 11:43.73 | 117312 | 170109 4 | 37:48.10 | 9:01.07 | 170110 | 210691 5 | 46:49.17 | 4:18.67 | 210692 | 230108 6 | 51:08.09 | 7:13.08 | 230109 | 262591
Характеристики диапазона извлечения и сообщения об ошибках
Выбранный диапазон
Имя файла D:\H.V. - Complete Violin Concertos (in 3 CD)\CD 1\Orchestre Philharmonique Royal de Liège - Henri Vieuxtemps - Complete Violin Concertos.wav
Пиковый уровень 86.4 % Скорость извлечения 4.5 X Качество диапазона 100.0 % CRC теста 7221E99C CRC копии 7221E99C Копирование... OK
Ошибок не произошло
AccurateRip: сводка
Трек 1 : извлечено точно (доверие 6) [6BC42CF7] (AR v2)Трек 2 : извлечено точно (доверие 6) [673F6260] (AR v2)Трек 3 : извлечено точно (доверие 5) [973B0151] (AR v2)Трек 4 : извлечено точно (доверие 6) [6A403430] (AR v2)Трек 5 : извлечено точно (доверие 6) [06F38944] (AR v2)Трек 6 : извлечено точно (доверие 6) [A97D03F4] (AR v2)
Все треки извлечены точно
Конец отчёта
==== Контрольная сумма отчёта 8A9D1598F27CAF1F63028A8F379703F6CAD6C9B70E64B844F9A303DD9F6B10C8 ====

CD 2

Exact Audio Copy V1.0 beta 4 from 7. December 2014
Отчёт EAC об извлечении, выполненном 25. января 2015, 8:46
Orchestre Philharmonique Royal de Liège / Complete Violin Concertos CD2
Дисковод: hp DVD A DS8A8SH Adapter: 1 ID: 0
Режим чтения : ДостоверностьИспользование точного потока : ДаОтключение кэша аудио : ДаИспользование указателей C2 : Нет
Коррекция смещения при чтении : 6Способность читать области Lead-in и Lead-out : НетЗаполнение пропущенных сэмплов тишиной : ДаУдаление блоков с тишиной в начале и конце : НетПри вычислениях CRC использовались нулевые сэмплы : ДаИнтерфейс : Встроенный Win32-интерфейс для Win NT/2000
Выходной формат : Пользовательский кодировщикВыбранный битрейт : 128 kBit/sКачество : ВысокийДобавление ID3-тега : НетУтилита сжатия : C:\Program Files (x86)\Monkey's Audio\MAC.exeДополнительные параметры : %source% %dest% -c3000
TOC извлечённого CD
Трек | Старт | Длительность | Начальный сектор | Конечный сектор --------------------------------------------------------------------- 1 | 0:00.00 | 19:57.63 | 0 | 89837 2 | 19:57.63 | 5:01.66 | 89838 | 112478 3 | 24:59.54 | 11:38.36 | 112479 | 164864 4 | 36:38.15 | 9:43.01 | 164865 | 208590 5 | 46:21.16 | 7:04.43 | 208591 | 240433 6 | 53:25.59 | 4:57.42 | 240434 | 262750 7 | 58:23.26 | 8:04.31 | 262751 | 299081
Характеристики диапазона извлечения и сообщения об ошибках
Выбранный диапазон
Имя файла D:\H.V. - Complete Violin Concertos (in 3 CD)\CD 2\Orchestre Philharmonique Royal de Liège - Complete Violin Concertos CD2.wav
Пиковый уровень 85.3 % Скорость извлечения 4.9 X Качество диапазона 100.0 % CRC теста D19C7C25 CRC копии D19C7C25 Копирование... OK
Ошибок не произошло
AccurateRip: сводка
Трек 1 : извлечено точно (доверие 6) [E6D58A82] (AR v2)Трек 2 : извлечено точно (доверие 6) [2BCB8133] (AR v2)Трек 3 : извлечено точно (доверие 6) [415A81C1] (AR v2)Трек 4 : извлечено точно (доверие 6) [8ED8A981] (AR v2)Трек 5 : извлечено точно (доверие 6) [4963AD91] (AR v2)Трек 6 : извлечено точно (доверие 6) [FF610AF1] (AR v2)Трек 7 : извлечено точно (доверие 6) [200B1F87] (AR v2)
Все треки извлечены точно
Конец отчёта
==== Контрольная сумма отчёта 994B8E6FB31778FAB90C678AF864F2B93A7AE4D3B34BDFE9B98B4957D8446CF2 ====

CD 3

Exact Audio Copy V1.0 beta 4 from 7. December 2014
Отчёт EAC об извлечении, выполненном 25. января 2015, 9:35
Orchestre Philharmonique Royal de Liège / Henri Vieuxtemps - Complete Violin Concertos CD3
Дисковод: hp DVD A DS8A8SH Adapter: 1 ID: 0
Режим чтения : ДостоверностьИспользование точного потока : ДаОтключение кэша аудио : ДаИспользование указателей C2 : Нет
Коррекция смещения при чтении : 6Способность читать области Lead-in и Lead-out : НетЗаполнение пропущенных сэмплов тишиной : ДаУдаление блоков с тишиной в начале и конце : НетПри вычислениях CRC использовались нулевые сэмплы : ДаИнтерфейс : Встроенный Win32-интерфейс для Win NT/2000
Выходной формат : Пользовательский кодировщикВыбранный битрейт : 128 kBit/sКачество : ВысокийДобавление ID3-тега : НетУтилита сжатия : C:\Program Files (x86)\Monkey's Audio\MAC.exeДополнительные параметры : %source% %dest% -c3000
TOC извлечённого CD
Трек | Старт | Длительность | Начальный сектор | Конечный сектор --------------------------------------------------------------------- 1 | 0:00.00 | 19:59.16 | 0 | 89940 2 | 19:59.16 | 10:44.01 | 89941 | 138241 3 | 30:43.17 | 6:00.61 | 138242 | 165302 4 | 36:44.03 | 3:55.23 | 165303 | 182950 5 | 40:39.26 | 6:36.27 | 182951 | 212677 6 | 47:15.53 | 9:02.39 | 212678 | 253366 7 | 56:18.17 | 3:58.05 | 253367 | 271221 8 | 60:16.22 | 4:20.33 | 271222 | 290754
Характеристики диапазона извлечения и сообщения об ошибках
Выбранный диапазон
Имя файла D:\H.V. - Complete Violin Concertos (in 3 CD)\CD 3\Orchestre Philharmonique Royal de Liège - Henri Vieuxtemps - Complete Violin Concertos CD3.wav
Пиковый уровень 93.1 % Скорость извлечения 4.8 X Качество диапазона 100.0 % CRC теста 5829E5EB CRC копии 5829E5EB Копирование... OK
Ошибок не произошло
AccurateRip: сводка
Трек 1 : извлечено точно (доверие 6) [3E0F966F] (AR v2)Трек 2 : извлечено точно (доверие 5) [EB1D9BE6] (AR v2)Трек 3 : извлечено точно (доверие 6) [4C16296F] (AR v2)Трек 4 : извлечено точно (доверие 6) [06DA1E69] (AR v2)Трек 5 : извлечено точно (доверие 6) [FA815545] (AR v2)Трек 6 : извлечено точно (доверие 6) [CADF07C1] (AR v2)Трек 7 : извлечено точно (доверие 6) [E66B45C4] (AR v2)Трек 8 : извлечено точно (доверие 6) [FCEA0764] (AR v2)
Все треки извлечены точно
Конец отчёта
==== Контрольная сумма отчёта 174B79DD2FAF629B1E6518639C3FC36FBDD45F2FB6D408915673D473F264E75A ====

Содержание индексной карты (.CUE)CD 1

REM GENRE SymphonyREM DATE 2010REM DISCID 480DAD06REM COMMENT "ExactAudioCopy v1.0b4"TITLE "Henri Vieuxtemps - Complete Violin Concertos"PERFORMER "Orchestre Philharmonique Royal de Liege"FILE "Orchestre Philharmonique Royal de Liège - Henri Vieuxtemps - Complete Violin Concertos.ape" WAVE ; 3501226.667 milliseconds TRACK 01 AUDIO TITLE "Concerto pour violin et orchestre #1 op. 10 en mi majeur - I. Allegro moderato" PERFORMER "Orchestre Philharmonique Royal de Liege" INDEX 01 00:00:00 TRACK 02 AUDIO TITLE "Concerto pour violin et orchestre #1 op. 10 en mi majeur - II. Introduction: ..." PERFORMER "Orchestre Philharmonique Royal de Liege" INDEX 01 22:47:34 TRACK 03 AUDIO TITLE "Concerto pour violin et orchestre #1 op. 10 en mi majeur - III. Rondo: Allegr..." PERFORMER "Orchestre Philharmonique Royal de Liege" INDEX 01 26:04:12 TRACK 04 AUDIO TITLE "Concerto pour violin et orchestre #2 op. 19 en fa diese mineur - I. Allegro" PERFORMER "Orchestre Philharmonique Royal de Liege" INDEX 00 37:39:32 INDEX 01 37:48:10 TRACK 05 AUDIO TITLE "Concerto pour violin et orchestre #2 op. 19 en fa diese mineur - II. Andante" PERFORMER "Orchestre Philharmonique Royal de Liege" INDEX 01 46:49:17 TRACK 06 AUDIO TITLE "Concerto pour violin et orchestre #2 op. 19 en fa diese mineur - Rondo: Allegro" PERFORMER "Orchestre Philharmonique Royal de Liege" INDEX 01 51:08:09

CD 2

REM GENRE SymphonyREM DATE 2010REM DISCID 4E0F9307REM COMMENT "ExactAudioCopy v1.0b4"TITLE "Complete Violin Concertos CD2"PERFORMER "Orchestre Philharmonique Royal de Liege"FILE "Orchestre Philharmonique Royal de Liège - Complete Violin Concertos CD2.ape" WAVE ; 3987760.000 milliseconds TRACK 01 AUDIO TITLE "Concerto pour violon et orchestre #3 op. 25 en la majeur - I. Allegro" PERFORMER "Orchestre Philharmonique Royal de Liege" INDEX 01 00:00:00 TRACK 02 AUDIO TITLE "Concerto pour violon et orchestre #3 op. 25 en la majeur - II. Adagio" PERFORMER "Orchestre Philharmonique Royal de Liege" INDEX 01 19:57:63 TRACK 03 AUDIO TITLE "Concerto pour violon et orchestre #3 op. 25 en la majeur - III. Rondo:Allegretto" PERFORMER "Orchestre Philharmonique Royal de Liege" INDEX 01 24:59:54 TRACK 04 AUDIO TITLE "Concerto pour violon et orchestre #4 op. 31 en re majeur - I. Andante" PERFORMER "Orchestre Philharmonique Royal de Liege" INDEX 00 36:29:36 INDEX 01 36:38:15 TRACK 05 AUDIO TITLE "Concerto pour violon et orchestre #4 op. 31 en re majeur - II. Adagio religioso" PERFORMER "Orchestre Philharmonique Royal de Liege" INDEX 01 46:21:16 TRACK 06 AUDIO TITLE "Concerto pour violon et orchestre #4 op. 31 en re majeur - III. Scherzo vivac..." PERFORMER "Orchestre Philharmonique Royal de Liege" INDEX 01 53:25:59 TRACK 07 AUDIO TITLE "Concerto pour violon et orchestre #4 op. 31 en re majeur - IV. Finale marzial..." PERFORMER "Orchestre Philharmonique Royal de Liege" INDEX 01 58:23:26

CD 3

REM GENRE SymphonyREM DATE 2010REM DISCID 610F2408REM COMMENT "ExactAudioCopy v1.0b4"TITLE "Henri Vieuxtemps - Complete Violin Concertos CD3"PERFORMER "Orchestre Philharmonique Royal de Liege"FILE "Orchestre Philharmonique Royal de Liège - Henri Vieuxtemps - Complete Violin Concertos CD3.ape" WAVE ; 3876733.333 milliseconds TRACK 01 AUDIO TITLE "Concerto pour vilon et orchestre #5 op. 37 en la minor - Allegro non troppo-A..." PERFORMER "Orchestre Philharmonique Royal de Liege" INDEX 01 00:00:00 TRACK 02 AUDIO TITLE "Concerto pour vilon et orchestre #6 op. 47 en sol majeur - I. Allegro moderator" PERFORMER "Orchestre Philharmonique Royal de Liege" INDEX 00 19:49:59 INDEX 01 19:59:16 TRACK 03 AUDIO TITLE "Concerto pour vilon et orchestre #6 op. 47 en sol majeur - II. Pastorale" PERFORMER "Orchestre Philharmonique Royal de Liege" INDEX 01 30:43:17 TRACK 04 AUDIO TITLE "Concerto pour vilon et orchestre #6 op. 47 en sol majeur - III. Intermezzo" PERFORMER "Orchestre Philharmonique Royal de Liege" INDEX 01 36:44:03 TRACK 05 AUDIO TITLE "Concerto pour vilon et orchestre #6 op. 47 en sol majeur - IV. Rondo final" PERFORMER "Orchestre Philharmonique Royal de Liege" INDEX 01 40:39:26 TRACK 06 AUDIO TITLE "Concerto pour vilon et orchestre #7 op. 49 en la mineur - I. Moderato" PERFORMER "Orchestre Philharmonique Royal de Liege" INDEX 00 47:05:48 INDEX 01 47:15:53 TRACK 07 AUDIO TITLE "Concerto pour vilon et orchestre #7 op. 49 en la mineur - II. Melancolie" PERFORMER "Orchestre Philharmonique Royal de Liege" INDEX 01 56:18:17 TRACK 08 AUDIO TITLE "Concerto pour vilon et orchestre #7 op. 49 en la mineur - III. Finale" PERFORMER "Orchestre Philharmonique Royal de Liege" INDEX 01 60:16:22
[teatrix.ru].t9825.torrent 
Торрент: Зарегистрирован [ 2015-10-25 20:37 ] · DCB6BB67B94F25AB99943623C9F9C6656F5D7EFB

Скачать .torrent

Скачать

18 KB

Статус: проверено
Скачан: 0 раз
Размер: 847 MB
terms.php



Быстрый ответ

Имя:

      
Для отправки сообщений необходимо включить JavaScript
Показать сообщения:    

Текущее время: 09-Дек 22:19

Часовой пояс: UTC + 3


Вы можете начинать темы
Вы можете отвечать на сообщения
Вы не можете редактировать свои сообщения
Вы не можете удалять свои сообщения
Вы не можете голосовать в опросах
Вы не можете прикреплять файлы к сообщениям
Вы можете скачивать файлы