(Classical, Concerto) Wolfgang Amadeus Mozart - Piano Concertos No. 27 RV 595 & No.10 for 2 Pianos KV 365, Franz Schubert - Fantasia D 940 (Gilels / Гилельс, Emil & Elena, WP, Karl Bohm) - 2001, FLAC (image+.cue), lossless


Статистика раздачи [Обновить пиров]
Размер:  326 MB   |    Зарегистрирован:  1 год 1 месяц   |    Скачан:  0 раз

Полного источника не было: Никогда

 
   
 
 
 

[Цитировать]

Mozart & Schubert - Emil & Elena Gilels, Karl Böhm
Жанр: Classical, Concerto
Страна-производитель диска: Germany
Год издания диска: 2001
Издатель (лейбл): Deutsche Grammophon
Номер по каталогу: 463 652-2
Дата записи: 09 & 11. 1973 (Mozart), 07. 1978 (Schubert)
Аудиокодек: FLAC
Тип рипа: image+.cue
Битрейт аудио: lossless
Продолжительность: 77.36
Источник: собственный рип
Наличие сканов в содержимом раздачи: да
Исполнители: Elena & Emil Gilels, piano, Wiener Philharmoniker, Karl Böhm

Треклист:

Wolfgang Amadeus Mozart
Concerto for Piano and Orchestra in B flat major KV 595
01. I. Allegro
02. II. Larghetto
03. III. Allegro
Concerto for Two Pianos and Orchestra in E flat major KV 365
04. I. Allegro
05. II. Andante
06. III. Rondeau. Allegro
Franz Schubert
Fantasie f-moll D 940
07. Allegro molto moderato - Largo - Allegro vivace
Total 77.36

Лог создания рипа:

Exact Audio Copy V1.0 beta 3 from 29. August 2011
Отчёт EAC об извлечении, выполненном 22. января 2015, 22:03
Emil and Elena Gilels / Mozart: Piano Concerto No. 27, Concerto for two Pianos K. 365, Schubert: Fantasy D 940
Дисковод: Optiarc DVD RW AD-7260S Adapter: 0 ID: 1
Режим чтения : ДостоверностьИспользование точного потока : ДаОтключение кэша аудио : ДаИспользование указателей C2 : Нет
Коррекция смещения при чтении : 48Способность читать области Lead-in и Lead-out : НетЗаполнение пропущенных сэмплов тишиной : ДаУдаление блоков с тишиной в начале и конце : НетПри вычислениях CRC использовались нулевые сэмплы : ДаИнтерфейс : Встроенный Win32-интерфейс для Win NT/2000
Выходной формат : Пользовательский кодировщикВыбранный битрейт : 896 kBit/sКачество : ВысокийДобавление ID3-тега : НетУтилита сжатия : C:\Program Files\FLAC Frontend\tools\flac.exeДополнительные параметры : -V -8 -T "Date=%year%" -T "Genre=%genre%" %source%
TOC извлечённого CD
Трек | Старт | Длительность | Начальный сектор | Конечный сектор --------------------------------------------------------------------- 1 | 0:00.00 | 14:31.00 | 0 | 65324 2 | 14:31.00 | 9:01.00 | 65325 | 105899 3 | 23:32.00 | 9:33.00 | 105900 | 148874 4 | 33:05.00 | 10:28.00 | 148875 | 195974 5 | 43:33.00 | 8:17.00 | 195975 | 233249 6 | 51:50.00 | 7:19.00 | 233250 | 266174 7 | 59:09.00 | 18:27.00 | 266175 | 349199
Характеристики диапазона извлечения и сообщения об ошибках
Выбранный диапазон
Имя файла D:\EAC\Mozart & Schubert - Piano Concertos, Fantasia - Gilels, Bohm\Emil and Elena Gilels - Mozart- Piano Concerto No. 27, Concerto for two Pianos K. 365, Schubert- Fantasy D 940.wav
Пиковый уровень 99.9 % Скорость извлечения 4.5 X Качество диапазона 100.0 % CRC теста 2280BEC6 CRC копии 2280BEC6 Копирование... OK
Ошибок не произошло
AccurateRip: сводка
Трек 1 : извлечено точно (доверие 8) [AA957EB2] (AR v2)Трек 2 : извлечено точно (доверие 9) [6233B7E4] (AR v2)Трек 3 : извлечено точно (доверие 9) [0D56DDBE] (AR v2)Трек 4 : извлечено точно (доверие 8) [72B3E2C8] (AR v2)Трек 5 : извлечено точно (доверие 9) [F58E3B83] (AR v2)Трек 6 : извлечено точно (доверие 9) [FA8B1598] (AR v2)Трек 7 : извлечено точно (доверие 9) [6E42F443] (AR v2)
Все треки извлечены точно
Конец отчёта
==== Контрольная сумма отчёта 22EE740BD741A4F87F510ED253CA0167E232B699274CD60CCDF5DC98F2B0522C ====
[teatrix.ru].t9826.torrent 
Торрент: Зарегистрирован [ 2015-10-25 20:37 ] · 17C960C5925F94D547572984A6CBDF72E7EB6A49

Скачать .torrent

Скачать

14 KB

Статус: проверено
Скачан: 0 раз
Размер: 326 MB
terms.php



Быстрый ответ

Имя:

      
Для отправки сообщений необходимо включить JavaScript
Показать сообщения:    

Текущее время: 07-Дек 13:41

Часовой пояс: UTC + 3


Вы можете начинать темы
Вы можете отвечать на сообщения
Вы не можете редактировать свои сообщения
Вы не можете удалять свои сообщения
Вы не можете голосовать в опросах
Вы не можете прикреплять файлы к сообщениям
Вы можете скачивать файлы