(Baroque) Antonio Vivaldi, Arcangelo Corelli - Concerto d-moll для 2-х скрипок, basso, continuo; Concerto Grosso VIII (Рождественский) [Mysterium - Станислав Михайлов, А.Халапсис, А.Степаненко] - 2006, FLAC (image+.cue) lossless


Статистика раздачи [Обновить пиров]
Размер:  188 MB   |    Зарегистрирован:  1 год 1 месяц   |    Скачан:  0 раз

Полного источника не было: Никогда

 
   
 
 
 

[Цитировать]

Mysterium - скрипичные концерты Антонио Вивальди и Арканджело Корелли
Жанр: Baroque
Страна-производитель диска: Россия
Год издания диска: 2006
Издатель (лейбл): Extraphone
Номер по каталогу: Ex06458
Дата записи: 2006
Аудиокодек: FLAC
Тип рипа: image+.cue
Битрейт аудио: lossless
Продолжительность: 31:07
Источник: собственный рип
Наличие сканов в содержимом раздачи: да
Треклист:
Antonio Vivaldi - Concerto d-moll для 2-х скрипок, basso, continuo, струнных и клавира
01 - 1.Allegro
02 - 2.Adagio e spiccato
03 - 3.Allegro
04 - 4.Largo e spiccato
05 - 5.Allegro
Arcangelo Corelli - Concerto Grosso VIII (Рождественский)
06 - 1.Allegro. Grave
07 - 2.Allegro
08 - 3.Adagio
09 - 4.Vivace
10 - 5.Allegro
11 - 6.Largo (Pastorale ad libitum)
Исполнители:
Mysterium, художественный руководитель С.Михайлов
Солисты -
А.Халапсис (скрипка) профессор Афинской консерватории и Индианаполисского университета,
А.Степаненко (скрипка) лауреат международных конкурсов,
С.Михайлов (виолончель) лауреат международных конкурсов

Лог создания рипа

Exact Audio Copy V1.0 beta 3 from 29. August 2011
Отчёт EAC об извлечении, выполненном 18. января 2015, 0:46
С.Михайлов / Mysterium - А.Вивальди, А.Корелли
Дисковод: _NEC DVD_RW ND-3500AG Adapter: 0 ID: 0
Режим чтения : ДостоверностьИспользование точного потока : ДаОтключение кэша аудио : ДаИспользование указателей C2 : Нет
Коррекция смещения при чтении : 48Способность читать области Lead-in и Lead-out : НетЗаполнение пропущенных сэмплов тишиной : ДаУдаление блоков с тишиной в начале и конце : НетПри вычислениях CRC использовались нулевые сэмплы : ДаИнтерфейс : Встроенный Win32-интерфейс для Win NT/2000
Выходной формат : Внутренние WAV-операцииФормат сэмплов : 44.100 Гц; 16 бит; стерео
TOC извлечённого CD
Трек | Старт | Длительность | Начальный сектор | Конечный сектор --------------------------------------------------------------------- 1 | 0:00.00 | 1:17.56 | 0 | 5830 2 | 1:17.56 | 0:37.44 | 5831 | 8649 3 | 1:55.25 | 3:36.36 | 8650 | 24885 4 | 5:31.61 | 3:24.10 | 24886 | 40195 5 | 8:55.71 | 3:19.47 | 40196 | 55167 6 | 12:15.43 | 2:02.03 | 55168 | 64320 7 | 14:17.46 | 2:56.61 | 64321 | 77581 8 | 17:14.32 | 4:08.10 | 77582 | 96191 9 | 21:22.42 | 1:27.19 | 96192 | 102735 10 | 22:49.61 | 2:59.61 | 102736 | 116221 11 | 25:49.47 | 5:17.71 | 116222 | 140067
Характеристики диапазона извлечения и сообщения об ошибках
Выбранный диапазон
Имя файла C:\Users\ШАКЛЮПАМС\Desktop\С.Михайлов - Mysterium - А.Вивальди, А.Корелли.wav
Пиковый уровень 100.0 % Скорость извлечения 5.5 X Качество диапазона 99.9 % CRC теста BCBCDD44 CRC копии BCBCDD44 Копирование... OK
Ошибок не произошло
AccurateRip: сводка
Трек 1 отсутствует в базе данныхТрек 2 отсутствует в базе данныхТрек 3 отсутствует в базе данныхТрек 4 отсутствует в базе данныхТрек 5 отсутствует в базе данныхТрек 6 отсутствует в базе данныхТрек 7 отсутствует в базе данныхТрек 8 отсутствует в базе данныхТрек 9 отсутствует в базе данныхТрек 10 отсутствует в базе данныхТрек 11 отсутствует в базе данных
Ни одного трека нет в базе AccurateRip
Конец отчёта

Содержание индексной карты (.CUE)

REM GENRE ClassicalREM DATE 2006REM DISCID 8B074B0BREM COMMENT "ExactAudioCopy v1.0b3"PERFORMER "С.Михайлов"TITLE "Mysterium - А.Вивальди, А.Корелли"FILE "С.Михайлов - Mysterium - А.Вивальди, А.Корелли.flac" WAVE TRACK 01 AUDIO TITLE "Concerto d-moll для 2-х скрипок, basso, continuo, струнных и клавира - 1.Allegro" PERFORMER "С.Михайлов" INDEX 01 00:00:00 TRACK 02 AUDIO TITLE "Concerto d-moll для 2-х скрипок, basso, continuo, струнных и клавира - 2.Adag..." PERFORMER "С.Михайлов" INDEX 01 01:17:56 TRACK 03 AUDIO TITLE "Concerto d-moll для 2-х скрипок, basso, continuo, струнных и клавира - 3.Allegro" PERFORMER "С.Михайлов" INDEX 01 01:55:25 TRACK 04 AUDIO TITLE "Concerto d-moll для 2-х скрипок, basso, continuo, струнных и клавира - 4.Larg..." PERFORMER "С.Михайлов" INDEX 01 05:31:61 TRACK 05 AUDIO TITLE "Concerto d-moll для 2-х скрипок, basso, continuo, струнных и клавира - 5.Allegro" PERFORMER "С.Михайлов" INDEX 01 08:55:71 TRACK 06 AUDIO TITLE "Concerto Grosso VIII (Рождественский) - 1.Allegro. Grave" PERFORMER "С.Михайлов" INDEX 01 12:15:43 TRACK 07 AUDIO TITLE "Concerto Grosso VIII (Рождественский) - 2.Allegro" PERFORMER "С.Михайлов" INDEX 01 14:17:46 TRACK 08 AUDIO TITLE "Concerto Grosso VIII (Рождественский) - 3.Adagio" PERFORMER "С.Михайлов" INDEX 01 17:14:32 TRACK 09 AUDIO TITLE "Concerto Grosso VIII (Рождественский) - 4.Vivace" PERFORMER "С.Михайлов" INDEX 01 21:22:42 TRACK 10 AUDIO TITLE "Concerto Grosso VIII (Рождественский) - 5.Allegro" PERFORMER "С.Михайлов" INDEX 01 22:49:61 TRACK 11 AUDIO TITLE "Concerto Grosso VIII (Рождественский) - 6.Largo (Pastorale ad libitum)" PERFORMER "С.Михайлов" INDEX 01 25:49:47
Доп. информация: Альбом, который Вы держите в своих руках, продолжает серию "Антология классики" в исполнении
замечательного музыкального коллектива Mysterium под руководством продюсера, профессионального
музыканта и композитора, являющегося членом Союза композиторов, - Станислава Михайлова.
Неповторимое звучание, высокий профессионализм, и тонкое понимание музыки - вот то малое, что
можно сказать о данном коллективе. Музыканты сумели удивительно точно передать все краски того времени.
[teatrix.ru].t9827.torrent 
Торрент: Зарегистрирован [ 2015-10-25 20:37 ] · 040E1CF05CFD39FB3BB118A2D72499F41688E526

Скачать .torrent

Скачать

16 KB

Статус: проверено
Скачан: 0 раз
Размер: 188 MB
terms.php



Быстрый ответ

Имя:

      
Для отправки сообщений необходимо включить JavaScript
Показать сообщения:    

Текущее время: 10-Дек 23:27

Часовой пояс: UTC + 3


Вы можете начинать темы
Вы можете отвечать на сообщения
Вы не можете редактировать свои сообщения
Вы не можете удалять свои сообщения
Вы не можете голосовать в опросах
Вы не можете прикреплять файлы к сообщениям
Вы можете скачивать файлы