(Classical) Johann Sebastian Bach (Иоганн Себастьян Бах) - Violin Concertos BWV 1041, 1042, 1043, 1052R & 1056R (Giuliano Carmignola & Mayumi Hirasaki, Concerto Koln) - 2014, FLAC (image+.cue) lossless


Статистика раздачи [Обновить пиров]
Размер:  441 MB   |    Зарегистрирован:  1 год 1 месяц   |    Скачан:  0 раз

Полного источника не было: Никогда

 
   
 
 
 

[Цитировать]

Johann Sebastian Bach - Violin Concertos
Жанр: Classical
Страна-производитель диска: EU
Год издания диска: 2014
Издатель (лейбл): Deutsche Grammophon
Номер по каталогу: 479 2695 |A|H|
Дата записи: VII.2013
Аудиокодек: FLAC
Тип рипа: image+.cue
Битрейт аудио: lossless
Продолжительность: 1:13'42"
Источник: собственный рип
Наличие сканов в содержимом раздачи: да
Треклист:
Violin Concerto BWV 1041
01. I. (Allegro moderato)
02. II. Andante
03. III. Allegro assai
Violin Concerto BWV 1042
04. I. Allegro
05. II. Adagio
06. III. Allegro assai
Concerto for 2 Violins BWV 1043*
07. I. Vivace
08. II. Largo, ma non tanto
09. III. Allegro
Violin Concerto BWV 1056R
10. I. (Allegro)
11. II. Largo
12. III. Presto
Violin Concerto BWV 1052R
13. I. Allegro
14. II. Adagio
15. III. Allegro
Исполнители:
Giuliano Carmignola, violin
Mayumi Hirasaki, violin*
Concerto Koln
-

Лог создания рипа

Exact Audio Copy V1.0 beta 4 from 7. December 2014
EAC extraction logfile from 17. January 2015, 12:39
Johann Sebastian Bach / Violin Concertos
Used drive : TSSTcorpDVDWBD TS-LB23A Adapter: 1 ID: 0
Read mode : SecureUtilize accurate stream : YesDefeat audio cache : YesMake use of C2 pointers : No
Read offset correction : 6Overread into Lead-In and Lead-Out : NoFill up missing offset samples with silence : YesDelete leading and trailing silent blocks : NoNull samples used in CRC calculations : YesUsed interface : Native Win32 interface for Win NT & 2000
Used output format : User Defined EncoderSelected bitrate : 128 kBit/sQuality : HighAdd ID3 tag : YesCommand line compressor : C:\Program Files (x86)\Exact Audio Copy\Flac\flac.exeAdditional command line options : -T "COMMENT=Ripped by GFox" -V -8 %source%
TOC of the extracted CD
Track | Start | Length | Start sector | End sector --------------------------------------------------------- 1 | 0:00.00 | 3:29.32 | 0 | 15706 2 | 3:29.32 | 6:00.18 | 15707 | 42724 3 | 9:29.50 | 3:30.28 | 42725 | 58502 4 | 13:00.03 | 7:13.31 | 58503 | 91008 5 | 20:13.34 | 6:10.01 | 91009 | 118759 6 | 26:23.35 | 2:36.07 | 118760 | 130466 7 | 28:59.42 | 3:25.11 | 130467 | 145852 8 | 32:24.53 | 6:08.58 | 145853 | 173510 9 | 38:33.36 | 4:32.10 | 173511 | 193920 10 | 43:05.46 | 3:24.31 | 193921 | 209251 11 | 46:30.02 | 2:39.33 | 209252 | 221209 12 | 49:09.35 | 3:16.72 | 221210 | 235981 13 | 52:26.32 | 6:58.40 | 235982 | 267371 14 | 59:24.72 | 6:50.03 | 267372 | 298124 15 | 66:15.00 | 7:27.05 | 298125 | 331654
Range status and errors
Selected range
Filename D:\Downloads\Johann Sebastian Bach - Violin Concertos.wav
Peak level 95.3 % Extraction speed 2.0 X Range quality 100.0 % Test CRC 35B2F23F Copy CRC 35B2F23F Copy OK
No errors occurred
AccurateRip summary
Track 1 accurately ripped (confidence 2) [D5CC01E1] (AR v2)Track 2 accurately ripped (confidence 2) [213569BF] (AR v2)Track 3 accurately ripped (confidence 2) [7D2CA2BC] (AR v2)Track 4 accurately ripped (confidence 2) [6B947CDA] (AR v2)Track 5 accurately ripped (confidence 2) [77C696F0] (AR v2)Track 6 accurately ripped (confidence 2) [568308E2] (AR v2)Track 7 accurately ripped (confidence 2) [F1BEB147] (AR v2)Track 8 accurately ripped (confidence 2) [1912AC58] (AR v2)Track 9 accurately ripped (confidence 2) [F52DC8B6] (AR v2)Track 10 accurately ripped (confidence 2) [EDD07734] (AR v2)Track 11 accurately ripped (confidence 2) [4D01EAC8] (AR v2)Track 12 accurately ripped (confidence 2) [21E6BE31] (AR v2)Track 13 accurately ripped (confidence 2) [C547D0CE] (AR v2)Track 14 accurately ripped (confidence 2) [513341B6] (AR v2)Track 15 accurately ripped (confidence 2) [AE37CD9D] (AR v2)
All tracks accurately ripped
End of status report
==== Log checksum B1788E375D7FCC5F43DCD4F955822D0C53BC3B44EBA894BE4442BA39B6F00427 ====
-Доп. информация: Бах с тёплым жизнерадостным итальянским акцентом.-
[teatrix.ru].t9828.torrent 
Торрент: Зарегистрирован [ 2015-10-25 20:37 ] · 179E4BB5906059CA3D7DD12A28A137B119C6D403

Скачать .torrent

Скачать

18 KB

Статус: проверено
Скачан: 0 раз
Размер: 441 MB
terms.php



Быстрый ответ

Имя:

      
Для отправки сообщений необходимо включить JavaScript
Показать сообщения:    

Текущее время: 10-Дек 11:54

Часовой пояс: UTC + 3


Вы можете начинать темы
Вы можете отвечать на сообщения
Вы не можете редактировать свои сообщения
Вы не можете удалять свои сообщения
Вы не можете голосовать в опросах
Вы не можете прикреплять файлы к сообщениям
Вы можете скачивать файлы