(Classical) Johann Sebastian Bach - Harpsichord Concertos, Vol. 2: BWV 1054, 1055, 1057, 906 • W.F.Bach - Concerto in G major - Aapo Häkkinen (Hakkinen), Helsinki Baroque Orchestra - 2013, FLAC (image+.cue) lossless


Статистика раздачи [Обновить пиров]
Размер:  395 MB   |    Зарегистрирован:  1 год 2 месяца   |    Скачан:  0 раз

Полного источника не было: Никогда

 
   
 
 
 

[Цитировать]

Johann Sebastian Bach - Harpsichord Concertos, Vol. 2: BWV 1054, 1055, 1057, 906 • W.F.Bach - Concerto in G major - Aapo Häkkinen, Helsinki Baroque Orchestra
Жанр: Classical
Страна-производитель диска: Germany
Год издания диска: 2013
Издатель (лейбл): Aeolus
Номер по каталогу: AE-10067
Дата записи: 2011
Аудиокодек: FLAC
Тип рипа: image+.cue
Битрейт аудио: lossless
Продолжительность: 62:30
Источник: собственный рип
Наличие сканов в содержимом раздачи: да
Треклист:
Johann Sebastian Bach
Harpsichord Concertos, Volume 2
[1]-[3] Concerto III in D major, BWV 1054
[4]-[6] Concerto IV in A major, BWV 1055
[7]-[9] Concerto VI in F major, BWV 1057
[10] Fantasia in C minor, BWV 906
for solo harpsichord
Wilhelm Friedemann Bach
[11]-[13] Concerto in G major, Fk 40
for solo harpsichord
Исполнители:
Aapo Häkkinen harpsichord
Helsinki Baroque Orchestra

Лог создания рипа

Exact Audio Copy V1.0 beta 3 from 29. August 2011
EAC extraction logfile from 7. October 2014, 1:25
Aapo Hakkinen, Helsinki Baroque Orchestra / Bach - Harpsichord Concertos, Vol.2
Used drive : HL-DT-STDVDRAM GU70N Adapter: 0 ID: 0
Read mode : SecureUtilize accurate stream : YesDefeat audio cache : YesMake use of C2 pointers : No
Read offset correction : 48Overread into Lead-In and Lead-Out : NoFill up missing offset samples with silence : YesDelete leading and trailing silent blocks : NoNull samples used in CRC calculations : YesUsed interface : Native Win32 interface for Win NT & 2000
Used output format : User Defined EncoderSelected bitrate : 128 kBit/sQuality : HighAdd ID3 tag : NoCommand line compressor : C:\Program Files (x86)\Exact Audio Copy\Flac\flac.exeAdditional command line options : -V -8 -T "Date=%year%" -T "Genre=%genre%" %source%
TOC of the extracted CD
Track | Start | Length | Start sector | End sector --------------------------------------------------------- 1 | 0:00.00 | 7:46.67 | 0 | 35016 2 | 7:46.67 | 5:22.31 | 35017 | 59197 3 | 13:09.23 | 2:51.57 | 59198 | 72079 4 | 16:01.05 | 4:15.67 | 72080 | 91271 5 | 20:16.72 | 4:56.25 | 91272 | 113496 6 | 25:13.22 | 4:34.21 | 113497 | 134067 7 | 29:47.43 | 7:24.03 | 134068 | 167370 8 | 37:11.46 | 3:18.62 | 167371 | 182282 9 | 40:30.33 | 5:22.54 | 182283 | 206486 10 | 45:53.12 | 5:27.59 | 206487 | 231070 11 | 51:20.71 | 4:21.31 | 231071 | 250676 12 | 55:42.27 | 3:14.14 | 250677 | 265240 13 | 58:56.41 | 3:33.74 | 265241 | 281289
Range status and errors
Selected range
Filename C:\temp\AE-10067 - Bach - Harpsichord Concertos, Vol.2 (Aapo Hakkinen, Helsinki Baroque Orchestra)\Bach - Harpsichord Concertos, Vol.2.wav
Peak level 97.5 % Extraction speed 2.2 X Range quality 100.0 % Test CRC 91A07F3D Copy CRC 91A07F3D Copy OK
No errors occurred
AccurateRip summary
Track 1 accurately ripped (confidence 3) [8563DE2C] (AR v2)Track 2 accurately ripped (confidence 3) [8DD64755] (AR v2)Track 3 accurately ripped (confidence 3) [184A0E00] (AR v2)Track 4 accurately ripped (confidence 3) [869418D0] (AR v2)Track 5 accurately ripped (confidence 3) [DC70A484] (AR v2)Track 6 accurately ripped (confidence 3) [A93210A8] (AR v2)Track 7 accurately ripped (confidence 3) [78F0D9E4] (AR v2)Track 8 accurately ripped (confidence 3) [6B63269C] (AR v2)Track 9 accurately ripped (confidence 3) [1B642F4F] (AR v2)Track 10 accurately ripped (confidence 3) [088B3757] (AR v2)Track 11 accurately ripped (confidence 3) [DA57D19F] (AR v2)Track 12 accurately ripped (confidence 3) [6E8E0F30] (AR v2)Track 13 accurately ripped (confidence 3) [5C55BEEF] (AR v2)
All tracks accurately ripped
End of status report
==== Log checksum 1EF3EC0BF1F9C9606CE7FBE5D524425BF7051B122614165C4658B67FFAC63CBA ====
[teatrix.ru].t9829.torrent 
Торрент: Зарегистрирован [ 2015-10-25 20:37 ] · 393253862518CDFBA60B773AFE783F2DC1ACC6E0

Скачать .torrent

Скачать

33 KB

Статус: проверено
Скачан: 0 раз
Размер: 395 MB
terms.php



Быстрый ответ

Имя:

      
Для отправки сообщений необходимо включить JavaScript
Показать сообщения:    

Текущее время: 18-Янв 02:34

Часовой пояс: UTC + 3


Вы можете начинать темы
Вы можете отвечать на сообщения
Вы не можете редактировать свои сообщения
Вы не можете удалять свои сообщения
Вы не можете голосовать в опросах
Вы не можете прикреплять файлы к сообщениям
Вы можете скачивать файлы