(Classical) Антонио Вивальди - Времена Года \ Antonio Vivaldi - The Four Seasons (Le Quattro Stagioni) (English Chamber Orchestra - L.Slatkin) - 2002, FLAC (tracks+.cue) lossless


Статистика раздачи [Обновить пиров]
Размер:  244 MB   |    Зарегистрирован:  1 год 1 месяц   |    Скачан:  0 раз

Полного источника не было: Никогда

 
   
 
 
 

[Цитировать]

Антонио Вивальди - Времена Года
Жанр: Classical
Страна-производитель диска: Россия
Год издания диска: 2002
Издатель (лейбл): Ридерз Дайджест
Номер по каталогу: RM-CD04
Аудиокодек: FLAC
Тип рипа: tracks+.cue
Битрейт аудио: lossless
Продолжительность: 42:43
Источник: собственный рип
Наличие сканов в содержимом раздачи: да
Треклист:
01. Spring [10:17]
02. Summer [10:34]
03. Autumn [12:32]
04. Winter [09:21]
Исполнители:
английский камерный оркестр Леонарда Слаткина
(English Chamber Orchestra - L.Slatkin)

Лог создания рипа

Exact Audio Copy V1.0 beta 4 from 7. December 2014
EAC extraction logfile from 9. January 2015, 1:24
Antonio Vivaldi / Vivaldi's "The Four Seasons" (English Chamber Orchestra)
Used drive : ASUS SDRW-08D2S-U Adapter: 1 ID: 0
Read mode : SecureUtilize accurate stream : YesDefeat audio cache : YesMake use of C2 pointers : No
Read offset correction : 6Overread into Lead-In and Lead-Out : NoFill up missing offset samples with silence : YesDelete leading and trailing silent blocks : NoNull samples used in CRC calculations : YesUsed interface : Native Win32 interface for Win NT & 2000Gap handling : Appended to previous track
Used output format : User Defined EncoderSelected bitrate : 128 kBit/sQuality : HighAdd ID3 tag : NoCommand line compressor : C:\Exact Audio Copy [installed]\Flac\flac.exeAdditional command line options : -8 -V -T "ARTIST=%artist%" -T "TITLE=%title%" -T "ALBUM=%albumtitle%" -T "DATE=%year%" -T "TRACKNUMBER=%tracknr%" -T "GENRE=%genre%" -T "COMMENT=ripped by Andy aka yetiisyou" %source%
TOC of the extracted CD
Track | Start | Length | Start sector | End sector --------------------------------------------------------- 1 | 0:00.32 | 10:16.68 | 32 | 46299 2 | 10:17.25 | 10:33.65 | 46300 | 93839 3 | 20:51.15 | 12:31.10 | 93840 | 150174 4 | 33:22.25 | 9:20.15 | 150175 | 192189
Track 1
Filename E:\!Ripped by Andy aka yetiisyou\Антонио Вивальди - Времена Года (английский камерный орк. Леонарда Слаткина)\01. Antonio Vivaldi - The Four Seasons- Spring.wav
Pre-gap length 0:00:02.32
Peak level 82.8 % Extraction speed 1.4 X Track quality 100.0 % Test CRC 328899A4 Copy CRC 328899A4 Cannot be verified as accurate (confidence 5) [AFC64E7F], AccurateRip returned [D13ED563] (AR v2) Copy OK
Track 2
Filename E:\!Ripped by Andy aka yetiisyou\Антонио Вивальди - Времена Года (английский камерный орк. Леонарда Слаткина)\02. Antonio Vivaldi - The Four Seasons- Summer.wav
Pre-gap length 0:00:02.60
Peak level 92.4 % Extraction speed 1.7 X Track quality 100.0 % Test CRC 26DE5E88 Copy CRC 26DE5E88 Cannot be verified as accurate (confidence 5) [EF84491F], AccurateRip returned [614A81C7] (AR v2) Copy OK
Track 3
Filename E:\!Ripped by Andy aka yetiisyou\Антонио Вивальди - Времена Года (английский камерный орк. Леонарда Слаткина)\03. Antonio Vivaldi - The Four Seasons- Autumn.wav
Pre-gap length 0:00:01.35
Peak level 82.4 % Extraction speed 2.0 X Track quality 100.0 % Test CRC 5A2B1C14 Copy CRC 5A2B1C14 Cannot be verified as accurate (confidence 5) [B3C24FF5], AccurateRip returned [18354A45] (AR v2) Copy OK
Track 4
Filename E:\!Ripped by Andy aka yetiisyou\Антонио Вивальди - Времена Года (английский камерный орк. Леонарда Слаткина)\04. Antonio Vivaldi - The Four Seasons- Winter.wav
Pre-gap length 0:00:01.63
Peak level 87.6 % Extraction speed 2.2 X Track quality 100.0 % Test CRC 15AD108D Copy CRC 15AD108D Cannot be verified as accurate (confidence 5) [8718DB72], AccurateRip returned [5FF53F05] (AR v2) Copy OK
No tracks could be verified as accurateYou may have a different pressing from the one(s) in the database
No errors occurred
End of status report
---- CUETools DB Plugin V2.1.4
[CTDB TOCID: 6s9mK90mYEEV7YK8OP8olzRxqtc-] foundSubmit result: 6s9mK90mYEEV7YK8OP8olzRxqtc- has been submittedTrack | CTDB Status 1 | (0/3) No match 2 | (3/3) Accurately ripped 3 | (0/3) No match 4 | (3/3) Accurately ripped
==== Log checksum 9339A887DA095574C3A539F0CFB5F5DA702DB58796D80578D557CE9F5D17997F ====

Содержание индексной карты (.CUE)

REM DATE 2002REM DISCID 230A0204REM COMMENT "ExactAudioCopy v1.0b4"PERFORMER "Antonio Vivaldi"TITLE "Vivaldi's 'The Four Seasons' (English Chamber Orchestra)"FILE "01. Antonio Vivaldi - The Four Seasons- Spring.wav" WAVE TRACK 01 AUDIO TITLE "The Four Seasons: Spring" PERFORMER "Antonio Vivaldi" PREGAP 00:00:32 INDEX 01 00:00:00 TRACK 02 AUDIO TITLE "The Four Seasons: Summer" PERFORMER "Antonio Vivaldi" INDEX 00 10:14:08FILE "02. Antonio Vivaldi - The Four Seasons- Summer.wav" WAVE INDEX 01 00:00:00 TRACK 03 AUDIO TITLE "The Four Seasons: Autumn" PERFORMER "Antonio Vivaldi" INDEX 00 10:32:30FILE "03. Antonio Vivaldi - The Four Seasons- Autumn.wav" WAVE INDEX 01 00:00:00 TRACK 04 AUDIO TITLE "The Four Seasons: Winter" PERFORMER "Antonio Vivaldi" INDEX 00 12:29:22FILE "04. Antonio Vivaldi - The Four Seasons- Winter.wav" WAVE INDEX 01 00:00:00

Лог проверки качества

-----------------------
DON'T MODIFY THIS FILE
-----------------------
PERFORMER: auCDtect Task Manager, ver. 1.6.0 RC1 build 1.6.0.1Copyright (c) 2008-2010 y-soft. All rights reservedhttp://y-soft.org
ANALYZER: auCDtect: CD records authenticity detector, version 0.8.2Copyright (c) 2004 Oleg Berngardt. All rights reserved.Copyright (c) 2004 Alexander Djourik. All rights reserved.
FILE: 04. Antonio Vivaldi - The Four Seasons- Winter.flac Size: 45657455 Hash: 4F8BE51A6EE011A2834FD05D8E9A2FA1 Accuracy: -m0 Conclusion: CDDA 100% Signature: F43B750B0461C73F02E3230C3DAE5E36DA8667AEFILE: 03. Antonio Vivaldi - The Four Seasons- Autumn.flac Size: 63354829 Hash: 68603864DC2BC6C373532A2FDEBD4213 Accuracy: -m0 Conclusion: CDDA 100% Signature: AB9C67B646866F459026E3712D90FEAC864107ABFILE: 02. Antonio Vivaldi - The Four Seasons- Summer.flac Size: 56824799 Hash: E6A41F25C45988F28F6CCDC0CD0235FC Accuracy: -m0 Conclusion: CDDA 100% Signature: 6F2EE993B0999506C44C2E816C2ABD13A1063D06FILE: 01. Antonio Vivaldi - The Four Seasons- Spring.flac Size: 56200930 Hash: CF19274DD7C648C6107E728558A532A9 Accuracy: -m0 Conclusion: CDDA 100% Signature: 84C84D965D6B7648CC7432E3D27116A1C4A5A708
[teatrix.ru].t9830.torrent 
Торрент: Зарегистрирован [ 2015-10-25 20:37 ] · 52D27CCD8A01FC3FA6B0FC3B71DC14E2AA805B9D

Скачать .torrent

Скачать

20 KB

Статус: проверено
Скачан: 0 раз
Размер: 244 MB
terms.php



Быстрый ответ

Имя:

      
Для отправки сообщений необходимо включить JavaScript
Показать сообщения:    

Текущее время: 03-Дек 09:48

Часовой пояс: UTC + 3


Вы можете начинать темы
Вы можете отвечать на сообщения
Вы не можете редактировать свои сообщения
Вы не можете удалять свои сообщения
Вы не можете голосовать в опросах
Вы не можете прикреплять файлы к сообщениям
Вы можете скачивать файлы