(Classical) Beethoven: Piano Concerto No.3 • Mozart: Piano Concerto No.24 - Евгений Судьбин (Yevgeny Sudbin), Minnesota Orchestra, Osmo Vänskä (Vanska) - 2013, FLAC (image+.cue) lossless


Статистика раздачи [Обновить пиров]
Размер:  252 MB   |    Зарегистрирован:  1 год 1 месяц   |    Скачан:  0 раз

Полного источника не было: Никогда

Личеров:  1  [  0 KB/s  ]   Подробная статистика пиров
 
   
 
 
 

[Цитировать]

Beethoven: Piano Concerto No.3 • Mozart: Piano Concerto No.24 - Евгений Судьбин (Yevgeny Sudbin), Minnesota Orchestra, Osmo Vänskä
Жанр: Classical
Страна-производитель диска: Sweden
Год издания диска: 2013
Издатель (лейбл): BIS
Номер по каталогу: BIS-SACD-1978
Дата записи: 2011, 2012
Аудиокодек: FLAC
Тип рипа: image+.cue
Битрейт аудио: lossless
Продолжительность: 66:16
Источник: собственный рип
Наличие сканов в содержимом раздачи: да
Треклист:
Wolfgang Amadeus Mozart (1756–91)
[1]-[3] Piano Concerto No. 24 in C minor, K 491
Cadenzas: Yevgeny Sudbin
Ludwig van Beethoven (1770–1827)
[4]-[6] Piano Concerto No. 3 in C minor, Op. 37
Исполнители:
Евгений Судьбин piano
Minnesota Orchestra
Osmo Vänskä
conductor

Лог создания рипа

Exact Audio Copy V1.0 beta 3 from 29. August 2011
EAC extraction logfile from 4. January 2015, 1:09
Yevgeny Sudbin, Minnesota Orchestra, Osmo Vanska / Mozart & Beethoven - Piano Concertos in C minor
Used drive : HL-DT-STDVDRAM GU70N Adapter: 0 ID: 0
Read mode : SecureUtilize accurate stream : YesDefeat audio cache : YesMake use of C2 pointers : No
Read offset correction : 48Overread into Lead-In and Lead-Out : NoFill up missing offset samples with silence : YesDelete leading and trailing silent blocks : NoNull samples used in CRC calculations : YesUsed interface : Native Win32 interface for Win NT & 2000
Used output format : User Defined EncoderSelected bitrate : 128 kBit/sQuality : HighAdd ID3 tag : NoCommand line compressor : C:\Program Files (x86)\Exact Audio Copy\Flac\flac.exeAdditional command line options : -V -8 -T "Date=%year%" -T "Genre=%genre%" %source%
TOC of the extracted CD
Track | Start | Length | Start sector | End sector --------------------------------------------------------- 1 | 0:00.00 | 13:43.52 | 0 | 61776 2 | 13:43.52 | 7:28.07 | 61777 | 95383 3 | 21:11.59 | 9:26.14 | 95384 | 137847 4 | 30:37.73 | 16:36.68 | 137848 | 212615 5 | 47:14.66 | 9:56.14 | 212616 | 257329 6 | 57:11.05 | 9:05.65 | 257330 | 298269
Range status and errors
Selected range
Filename C:\temp\BIS-SACD-1978 - Mozart, Beethoven - Piano Concertos in C minor - Sudbin\Mozart & Beethoven - Piano Concertos in C minor.wav
Peak level 97.8 % Extraction speed 2.3 X Range quality 100.0 % Test CRC 36EB7292 Copy CRC 36EB7292 Copy OK
No errors occurred
AccurateRip summary
Track 1 accurately ripped (confidence 7) [6295E96F] (AR v2)Track 2 accurately ripped (confidence 8) [AB6459E6] (AR v2)Track 3 accurately ripped (confidence 8) [BD97C20F] (AR v2)Track 4 accurately ripped (confidence 8) [05DCB278] (AR v2)Track 5 accurately ripped (confidence 8) [33848015] (AR v2)Track 6 accurately ripped (confidence 8) [0F9C3591] (AR v2)
All tracks accurately ripped
End of status report
==== Log checksum 429FAB0DDEECA93552AEEF9953563098443849BB9E8F36EEDF1E6EEE064E0506 ====
[teatrix.ru].t9831.torrent 
Торрент: Зарегистрирован [ 2015-10-25 20:37 ] · 3121BA65206648738508140BBF246078A4E96B7C

Скачать .torrent

Скачать

41 KB

Статус: проверено
Скачан: 0 раз
Размер: 252 MB
terms.php



Быстрый ответ

Имя:

      
Для отправки сообщений необходимо включить JavaScript
Показать сообщения:    

Текущее время: 08-Дек 12:56

Часовой пояс: UTC + 3


Вы можете начинать темы
Вы можете отвечать на сообщения
Вы не можете редактировать свои сообщения
Вы не можете удалять свои сообщения
Вы не можете голосовать в опросах
Вы не можете прикреплять файлы к сообщениям
Вы можете скачивать файлы