(Classical) Kalevi Aho (Калеви Ахо) - Theremin Concerto; Horn Concerto - Carolina Eyck, Annu Salminen; Lapland Chamber Orchestra, John Storgårds (Storgards) - 2014, FLAC (image+.cue) lossless


Статистика раздачи [Обновить пиров]
Размер:  222 MB   |    Зарегистрирован:  1 год 1 месяц   |    Скачан:  0 раз

Полного источника не было: Никогда

Личеров:  1  [  0 KB/s  ]   Подробная статистика пиров
 
   
 
 
 

[Цитировать]

Kalevi Aho - Theremin Concerto; Horn Concerto - Carolina Eyck, Annu Salminen; Lapland Chamber Orchestra, John Storgårds
Жанр: Classical
Страна-производитель диска: Sweden
Год издания диска: 2014
Издатель (лейбл): BIS
Номер по каталогу: BIS-SACD-2036
Дата записи: 2013
Аудиокодек: FLAC
Тип рипа: image+.cue
Битрейт аудио: lossless
Продолжительность: 58:28
Источник: собственный рип
Наличие сканов в содержимом раздачи: да
Треклист:
Kalevi Aho (b. 1949)
[1]-[5] Concerto for Horn and Chamber Orchestra (2011)
[6]-[13] Acht Jahreszeiten (Eight Seasons) (2011)
Concerto for Theremin and Chamber Orchestra
Исполнители:
Annu Salminen horn
Carolina Eyck theremin
Lapland Chamber Orchestra
John Storgårds
conductor

Лог создания рипа

Exact Audio Copy V1.0 beta 3 from 29. August 2011
EAC extraction logfile from 20. December 2014, 20:49
Lapland Chamber Orchestra, John Storgards / Aho - Theremin Concerto; Horn Concerto
Used drive : HL-DT-STDVDRAM GU70N Adapter: 0 ID: 0
Read mode : SecureUtilize accurate stream : YesDefeat audio cache : YesMake use of C2 pointers : No
Read offset correction : 48Overread into Lead-In and Lead-Out : NoFill up missing offset samples with silence : YesDelete leading and trailing silent blocks : NoNull samples used in CRC calculations : YesUsed interface : Native Win32 interface for Win NT & 2000
Used output format : User Defined EncoderSelected bitrate : 128 kBit/sQuality : HighAdd ID3 tag : NoCommand line compressor : C:\Program Files (x86)\Exact Audio Copy\Flac\flac.exeAdditional command line options : -V -8 -T "Date=%year%" -T "Genre=%genre%" %source%
TOC of the extracted CD
Track | Start | Length | Start sector | End sector --------------------------------------------------------- 1 | 0:00.00 | 6:41.26 | 0 | 30100 2 | 6:41.26 | 6:36.72 | 30101 | 59872 3 | 13:18.23 | 3:41.39 | 59873 | 76486 4 | 16:59.62 | 4:24.34 | 76487 | 96320 5 | 21:24.21 | 5:17.69 | 96321 | 120164 6 | 26:42.15 | 4:01.20 | 120165 | 138259 7 | 30:43.35 | 2:12.24 | 138260 | 148183 8 | 32:55.59 | 4:22.11 | 148184 | 167844 9 | 37:17.70 | 3:42.16 | 167845 | 184510 10 | 41:00.11 | 3:15.52 | 184511 | 199187 11 | 44:15.63 | 3:59.55 | 199188 | 217167 12 | 48:15.43 | 3:02.65 | 217168 | 230882 13 | 51:18.33 | 7:10.25 | 230883 | 263157 14 | 61:00.58 | 16:55.66 | 274558 | 350748
Range status and errors
Selected range
Filename C:\temp\BIS-SACD-2036 - Aho - Theremin Concerto; Horn Concerto\Aho - Theremin Concerto; Horn Concerto.wav
Peak level 97.8 % Extraction speed 5.0 X Range quality 100.0 % Test CRC FAB80C63 Copy CRC FAB80C63 Copy OK
No errors occurred
AccurateRip summary
Track 1 not present in databaseTrack 2 not present in databaseTrack 3 not present in databaseTrack 4 not present in databaseTrack 5 not present in databaseTrack 6 not present in databaseTrack 7 not present in databaseTrack 8 not present in databaseTrack 9 not present in databaseTrack 10 not present in databaseTrack 11 not present in databaseTrack 12 not present in databaseTrack 13 not present in database
None of the tracks are present in the AccurateRip database
End of status report
==== Log checksum 8B41E597E2D635FFD0B7AEE2885D66B3228D95C063613D81C4C544885E8A4486 ====
[teatrix.ru].t9832.torrent 
Торрент: Зарегистрирован [ 2015-10-25 20:37 ] · 285095D713AFE3DE37EDD0D9CB10E63C52B13B02

Скачать .torrent

Скачать

36 KB

Статус: проверено
Скачан: 0 раз
Размер: 222 MB
terms.php



Быстрый ответ

Имя:

      
Для отправки сообщений необходимо включить JavaScript
Показать сообщения:    

Текущее время: 02-Дек 23:11

Часовой пояс: UTC + 3


Вы можете начинать темы
Вы можете отвечать на сообщения
Вы не можете редактировать свои сообщения
Вы не можете удалять свои сообщения
Вы не можете голосовать в опросах
Вы не можете прикреплять файлы к сообщениям
Вы можете скачивать файлы