(Concerto) Georg Philipp Telemann - Wind Concertos [for flute, trumpet, oboes, chalumeaux]{Blaserkonzerte} (Hazelzet, Niesemann, Westermann, Dhont, Hoeprich, Klewitt, Schneider, Musica Antiqua Koln, Reinhard Goebel) - 1987, FLAC (image+.cue) lossless


Статистика раздачи [Обновить пиров]
Размер:  333 MB   |    Зарегистрирован:  1 год 1 месяц   |    Скачан:  2 раза

Полного источника не было: 2 месяца 11 дней

Личеров:  1  [  0 KB/s  ]   Подробная статистика пиров
 
   
 
 
 

[Цитировать]

Georg Philipp Telemann - Wind Concertos
Musica Antiqua Köln, Reinhard Goebel
Жанр: Baroque, Concerto
Страна-производитель диска: Germany
Год издания диска: 1987
Издатель (лейбл): Archiv Produktion
Номер по каталогу: 419 633-2
Дата записи: 1986
Аудиокодек: FLAC
Тип рипа: image+.cue
Битрейт аудио: lossless
Продолжительность: 1:05:52
Источник: скачано с odeonmusic
Наличие сканов в содержимом раздачи: да
Треклист:
Concerto For Transverse Flute In D Major
1 1. Moderato 2:41
2 2. Allegro 3:21
3 3. Largo 3:08
4 4. Vivace 2:39
Concerto For 3 Oboes In B Flat Major
5 1. Allegro 2:25
6 2. Largo 2:34
7 3. Allegro 4:01
Concerto For 2 Chalumeaux In D Minor
8 1. Largo 4:14
9 2. Allegro 3:01
10 3. Adagio 2:25
11 4. (Vivace) 1:37
Concerto For Trumpet In D Major
12 1. Adagio 1:45
13 2. Allegro 1:48
14 3. Grave 2:00
15 4. Allegro 1:33
Concerto For Recorder And Transverse Flute In E Minor
16 1. Largo 3:40
17 2. Allegro 3:45
18 3. Largo 3:28
19 4. Presto 2:25
Concerto For Trumpet And Violin In D Major
20 1. Vivace 3:21
21 2. Adagio 3:22
22 3. Allegro 4:36
Исполнители:
Wilbert Hazelzet - flute
Michael Niesemann, Peter Westermann, Piet Dhont - oboe
Erik Hoeprich & Lisa Klewitt - chalumeau
Michael Schneider - recorder
Friedemann Immer - trumpet
Musica Antiqua Köln
Reinhard Goebel
- conductor, violin

Лог создания рипа

Exact Audio Copy V1.0 beta 3 from 29. August 2011
EAC extraction logfile from 13. August 2012, 9:50
Georg Philipp Telemann / Telemann - Bläserkonzerte - Goebel
Used drive : HL-DT-STDVDRAM GSA-H10A Adapter: 0 ID: 0
Read mode : SecureUtilize accurate stream : YesDefeat audio cache : YesMake use of C2 pointers : No
Read offset correction : 667Overread into Lead-In and Lead-Out : NoFill up missing offset samples with silence : YesDelete leading and trailing silent blocks : NoNull samples used in CRC calculations : YesUsed interface : Native Win32 interface for Win NT & 2000
Used output format : User Defined EncoderSelected bitrate : 1024 kBit/sQuality : HighAdd ID3 tag : NoCommand line compressor : C:\Program Files\Exact Audio Copy\Flac\flac.exeAdditional command line options : -8 -V -T "TITLE=%title%" -T "ARTIST=%artist%" -T "ALBUMARTIST=%albumartist%" -T "ALBUM=%albumtitle%" -T "DATE=%year%" -T "TRACKNUMBER=%tracknr%" -T "TRACKTOTAL=%numtracks%" -T "GENRE=%genre%" -T "COMMENT=%comment%" -T "PERFORMER=%albuminterpret%" -T "COMPOSER=%composer%" %source% -o %dest%
TOC of the extracted CD
Track | Start | Length | Start sector | End sector --------------------------------------------------------- 1 | 0:00.33 | 2:40.70 | 33 | 12102 2 | 2:41.28 | 3:22.67 | 12103 | 27319 3 | 6:04.20 | 3:07.48 | 27320 | 41392 4 | 9:11.68 | 2:48.32 | 41393 | 54024 5 | 12:00.25 | 2:26.58 | 54025 | 65032 6 | 14:27.08 | 2:33.67 | 65033 | 76574 7 | 17:01.00 | 4:11.23 | 76575 | 95422 8 | 21:12.23 | 4:13.67 | 95423 | 114464 9 | 25:26.15 | 3:06.28 | 114465 | 128442 10 | 28:32.43 | 2:25.07 | 128443 | 139324 11 | 30:57.50 | 1:46.53 | 139325 | 147327 12 | 32:44.28 | 1:45.07 | 147328 | 155209 13 | 34:29.35 | 1:48.20 | 155210 | 163329 14 | 36:17.55 | 2:00.13 | 163330 | 172342 15 | 38:17.68 | 1:43.17 | 172343 | 180084 16 | 40:01.10 | 3:39.55 | 180085 | 196564 17 | 43:40.65 | 3:47.40 | 196565 | 213629 18 | 47:28.30 | 3:28.35 | 213630 | 229264 19 | 50:56.65 | 2:34.48 | 229265 | 240862 20 | 53:31.38 | 3:20.65 | 240863 | 255927 21 | 56:52.28 | 4:24.00 | 255928 | 275727 22 | 61:16.28 | 4:36.17 | 275728 | 296444
Range status and errors
Selected range
Filename F:\Ripped general\[1006] Telemann - Bläserkonzerte - Goebel\Telemann - Bläserkonzerte - Goebel.wav
Peak level 86.2 % Extraction speed 6.1 X Range quality 100.0 % Test CRC 3DCA7D87 Copy CRC 3DCA7D87 Copy OK
No errors occurred
AccurateRip summary
Track 1 accurately ripped (confidence 2) [E4936854] (AR v2)Track 2 accurately ripped (confidence 2) [357B772B] (AR v2)Track 3 accurately ripped (confidence 2) [85399A18] (AR v2)Track 4 accurately ripped (confidence 2) [79DF6E9B] (AR v2)Track 5 accurately ripped (confidence 2) [09A38D64] (AR v2)Track 6 accurately ripped (confidence 2) [436A3CA8] (AR v2)Track 7 accurately ripped (confidence 2) [3C106850] (AR v2)Track 8 accurately ripped (confidence 2) [CAD159EA] (AR v2)Track 9 accurately ripped (confidence 2) [B4E3A364] (AR v2)Track 10 accurately ripped (confidence 2) [294E5539] (AR v2)Track 11 accurately ripped (confidence 2) [249D10CE] (AR v2)Track 12 accurately ripped (confidence 2) [33D41281] (AR v2)Track 13 accurately ripped (confidence 2) [9333BD7A] (AR v2)Track 14 accurately ripped (confidence 2) [573E6958] (AR v2)Track 15 accurately ripped (confidence 2) [CFC3E328] (AR v2)Track 16 accurately ripped (confidence 2) [5F7835E0] (AR v2)Track 17 accurately ripped (confidence 2) [BE242617] (AR v2)Track 18 accurately ripped (confidence 2) [33E6EA2D] (AR v2)Track 19 accurately ripped (confidence 2) [75B9382A] (AR v2)Track 20 accurately ripped (confidence 2) [CA69DD3F] (AR v2)Track 21 accurately ripped (confidence 2) [DA1A4260] (AR v2)Track 22 accurately ripped (confidence 2) [27A94BB8] (AR v2)
All tracks accurately ripped
End of status report

Лог проверки качества

AUDIOCHECKER v2.0 beta (build 457) - by Dester - opdester@freemail.hu~~~~~~~~~~~~~~~~~~~~~~~~~~~~~~~~~~-=== DO NOT EDIT THIS FILE! ===-
Path: ...\Telemann - Blaserkonzerte (Goebel)
1 -=- Telemann - Blaserkonzerte - Goebel.flac -=- CDDA (100%)
119567508
[teatrix.ru].t9833.torrent 
Торрент: Зарегистрирован [ 2015-10-25 20:37 ] · B375924AF2A7FAF58FDBE69F9FD615DF68ABD5A9

Скачать .torrent

Скачать

14 KB

Статус: проверено
Скачан: 2 раз
Размер: 333 MB
terms.php



Быстрый ответ

Имя:

      
Для отправки сообщений необходимо включить JavaScript
Показать сообщения:    

Текущее время: 04-Дек 09:06

Часовой пояс: UTC + 3


Вы можете начинать темы
Вы можете отвечать на сообщения
Вы не можете редактировать свои сообщения
Вы не можете удалять свои сообщения
Вы не можете голосовать в опросах
Вы не можете прикреплять файлы к сообщениям
Вы можете скачивать файлы