(Classical) Johann Sebastian Bach - Violin Concertos BWV 1041-1043 (Zino Francescatti, Lucerne Festival Strings, Rudolf Baumgartner) - ?, FLAC (image+.cue) lossless


Статистика раздачи [Обновить пиров]
Размер:  282 MB   |    Зарегистрирован:  1 год 1 месяц   |    Скачан:  1 раз

Полного источника не было: 7 месяцев 29 дней

Личеров:  1  [  0 KB/s  ]   Подробная статистика пиров
 
   
 
 
 

[Цитировать]

Johann Sebastian Bach - Violin Concertos BWV 1041-1043 (Zino Francescatti, Lucerne Festival Strings, Rudolf Baumgartner)
Жанр: Classical
Страна-производитель диска: Российская Федерация
Год издания диска: ?
Издатель (лейбл): Орфей
Номер по каталогу: 008
Дата записи: 1972
Аудиокодек: FLAC
Тип рипа: image+.cue
Битрейт аудио: lossless
Продолжительность: 53:16
Источник: собственный рип
сайт-источник/ник/другое: Из личной коллекции
Наличие сканов в содержимом раздачи: да
Треклист:
Bach, J.S.
1-3. Concerto for 2 Violins, Strings and Continuo in D minor, BWV 1043
4-6. Concerto for Violin, Strings and Continuo in E major, BWV 1042
7-9. Concerto for Violin, Strings and Continuo in A minor, BWV 1041
Исполнители:
Rudolf Baumgartner, Festival Strings Lucerne
Zino Francescatti
RÚgis Pasquier (BWV 1043)

Лог создания рипа

Exact Audio Copy V1.0 beta 3 from 29. August 2011
EAC extraction logfile from 26. December 2014, 20:59
Zino Francescatti, Lucerne Festival Strings, Rudolph Baumgartner / J. S. Bach: Doppelkonzert Violinkonzert Nr. 1 & 2
Used drive : HL-DT-STDVDRAM GSA-T40N Adapter: 0 ID: 0
Read mode : SecureUtilize accurate stream : YesDefeat audio cache : YesMake use of C2 pointers : No
Read offset correction : 667Overread into Lead-In and Lead-Out : NoFill up missing offset samples with silence : YesDelete leading and trailing silent blocks : NoNull samples used in CRC calculations : YesUsed interface : Native Win32 interface for Win NT & 2000
Used output format : User Defined EncoderSelected bitrate : 32 kBit/sQuality : HighAdd ID3 tag : NoCommand line compressor : C:\Program Files\Exact Audio Copy\Flac\flac.exeAdditional command line options : -V -8 -T "Date=%year%" -T "Genre=%genre%" %source%
TOC of the extracted CD
Track | Start | Length | Start sector | End sector --------------------------------------------------------- 1 | 0:00.33 | 4:16.30 | 33 | 19262 2 | 4:16.63 | 7:13.37 | 19263 | 51774 3 | 11:30.25 | 5:40.55 | 51775 | 77329 4 | 17:11.05 | 8:39.00 | 77330 | 116254 5 | 25:50.05 | 7:27.43 | 116255 | 149822 6 | 33:17.48 | 3:04.32 | 149823 | 163654 7 | 36:22.05 | 4:28.20 | 163655 | 183774 8 | 40:50.25 | 8:10.43 | 183775 | 220567 9 | 49:00.68 | 4:15.52 | 220568 | 239744
Range status and errors
Selected range
Filename D:\Rip\Bach,J.S.Violin_Concertos-Zino_Francescatti,Lucerne_Festival_Strings,Rudolph_Baumgartner,1972(Orfei,008)\Zino Francescatti, Lucerne Festival Strings, Rudolph Baumgartner - J. S. Bach- Doppelkonzert Violinkonzert Nr. 1 & 2.wav
Peak level 78.9 % Extraction speed 4.0 X Range quality 100.0 % Test CRC 58859B9B Copy CRC 58859B9B Copy OK
No errors occurred
AccurateRip summary
Track 1 cannot be verified as accurate (confidence 12) [460B3D3A], AccurateRip returned [95BAB155] (AR v2)Track 2 cannot be verified as accurate (confidence 12) [D423F768], AccurateRip returned [09F95428] (AR v2)Track 3 cannot be verified as accurate (confidence 12) [67EA35C9], AccurateRip returned [32DF6D42] (AR v2)Track 4 cannot be verified as accurate (confidence 12) [822169CB], AccurateRip returned [CB057189] (AR v2)Track 5 cannot be verified as accurate (confidence 12) [95E9BE89], AccurateRip returned [65AADD58] (AR v2)Track 6 cannot be verified as accurate (confidence 13) [CDECA10C], AccurateRip returned [4E7BBD43] (AR v2)Track 7 cannot be verified as accurate (confidence 12) [370D1C07], AccurateRip returned [0B1FA0C2] (AR v2)Track 8 cannot be verified as accurate (confidence 12) [E0942DEF], AccurateRip returned [6D87179E] (AR v2)Track 9 cannot be verified as accurate (confidence 12) [7479FA11], AccurateRip returned [B882881A] (AR v2)
No tracks could be verified as accurateYou may have a different pressing from the one(s) in the database
End of status report
==== Log checksum 6ADC5734B317E2C566118F8D7876DB04CC00374BC6AE70E949D534DBEAA7AA0B ====

Содержание индексной карты (.CUE)

REM GENRE ClassicalREM DATE 1972REM DISCID 7F0C7C09REM COMMENT "ExactAudioCopy v1.0b3"PERFORMER "Zino Francescatti, Lucerne Festival Strings, Rudolph Baumgartner"TITLE "J. S. Bach: Doppelkonzert Violinkonzert Nr. 1 & 2"FILE "Zino Francescatti, Lucerne Festival Strings, Rudolph Baumgartner - J. S. Bach- Doppelkonzert Violinkonzert Nr. 1 & 2.flac" WAVE TRACK 01 AUDIO TITLE "J. S. Bach: Konzert fur 2 Violinen d-moll BWV 1043 1. Vivace" PERFORMER "Zino Francescatti, Lucerne Festival Strings, Rudolph Baumgartner" INDEX 00 00:00:00 INDEX 01 00:00:33 TRACK 02 AUDIO TITLE "J. S. Bach: Konzert fur 2 Violinen d-moll BWV 1043 2. Largo ma non tanto" PERFORMER "Zino Francescatti, Lucerne Festival Strings, Rudolph Baumgartner" INDEX 00 04:13:40 INDEX 01 04:16:63 TRACK 03 AUDIO TITLE "J. S. Bach: Konzert fur 2 Violinen d-moll BWV 1043 3. Allegro" PERFORMER "Zino Francescatti, Lucerne Festival Strings, Rudolph Baumgartner" INDEX 00 11:27:53 INDEX 01 11:30:25 TRACK 04 AUDIO TITLE "J. S. Bach: Konzert fur Violine E-durr BWV 1042 1. Allegro" PERFORMER "Zino Francescatti, Lucerne Festival Strings, Rudolph Baumgartner" INDEX 00 17:04:55 INDEX 01 17:11:05 TRACK 05 AUDIO TITLE "J. S. Bach: Konzert fur Violine E-durr BWV 1042 2. Adagio" PERFORMER "Zino Francescatti, Lucerne Festival Strings, Rudolph Baumgartner" INDEX 00 25:47:45 INDEX 01 25:50:05 TRACK 06 AUDIO TITLE "J. S. Bach: Konzert fur Violine E-durr BWV 1042 3. Allegro assai" PERFORMER "Zino Francescatti, Lucerne Festival Strings, Rudolph Baumgartner" INDEX 00 33:15:38 INDEX 01 33:17:48 TRACK 07 AUDIO TITLE "J. S. Bach: Konzert fur Violine a-moll BWV 1041 1. Allegro moderato" PERFORMER "Zino Francescatti, Lucerne Festival Strings, Rudolph Baumgartner" INDEX 00 36:14:70 INDEX 01 36:22:05 TRACK 08 AUDIO TITLE "J. S. Bach: Konzert fur Violine a-moll BWV 1041 2. Andante" PERFORMER "Zino Francescatti, Lucerne Festival Strings, Rudolph Baumgartner" INDEX 00 40:47:48 INDEX 01 40:50:25 TRACK 09 AUDIO TITLE "J. S. Bach: Konzert fur Violine a-moll BWV 1041 3. Allegro assai" PERFORMER "Zino Francescatti, Lucerne Festival Strings, Rudolph Baumgartner" INDEX 00 48:57:28 INDEX 01 49:00:68
[teatrix.ru].t9834.torrent 
Торрент: Зарегистрирован [ 2015-10-25 20:37 ] · C8BA938F0F0ACA707D00F40730D98954748314D9

Скачать .torrent

Скачать

12 KB

Статус: проверено
Скачан: 1 раз
Размер: 282 MB
terms.php



Быстрый ответ

Имя:

      
Для отправки сообщений необходимо включить JavaScript
Показать сообщения:    

Текущее время: 03-Дек 18:43

Часовой пояс: UTC + 3


Вы можете начинать темы
Вы можете отвечать на сообщения
Вы не можете редактировать свои сообщения
Вы не можете удалять свои сообщения
Вы не можете голосовать в опросах
Вы не можете прикреплять файлы к сообщениям
Вы можете скачивать файлы