(Classical/Violin) Ludwig van Beethoven, Felix Mendelssohn - Violin Concertos - M. Huggett - 1993, FLAC (tracks+.cue), lossless


Статистика раздачи [Обновить пиров]
Размер:  272 MB   |    Зарегистрирован:  1 год 1 месяц   |    Скачан:  1 раз

Полного источника не было: 3 месяца 20 дней

Личеров:  1  [  0 KB/s  ]   Подробная статистика пиров
 
   
 
 
 

[Цитировать]

Beethoven, Mendelssohn - Violin Concertos - M. Huggett
Жанр: Classical/Violin (Скрипка)
Год выпуска диска: 1993
Производитель диска: Germany
Аудио кодек: FLAC
Тип рипа: tracks+.cue
Битрейт аудио: lossless
Продолжительность: 1:06:16
Трэклист:
01. Beethoven Violin Concerto in D, Op. 61. I. Allegro ma non troppo (21:51)
02. II. Larghetto (7:59)
03. III. Rondo (9:15)
04. Mendelssohn Violin Concerto in e, Op. 64. I. Allegro molto appassionato (12:54)
05. II. Andante (7:14)
06. III. Allegretto non troppo -- Allegro molto vivace (7:03)

Треклист (подробный)

-1. Violin Concerto in D major, Op. 61 1. Allegro ma non troppo
Композитор: Ludwig van Beethoven
Оркестр: Orchestra of the Age of Enlightenment [members of]
Исполнитель: Monica Huggett
Дирижер: Sir Charles Mackerras-2. Piano Concerto in D major (after the Violin Concerto, Op. 61), Op. 61a 2. Larghetto -
Композитор: Ludwig van Beethoven
Оркестр: Orchestra of the Age of Enlightenment [members of]
Исполнитель: Monica Huggett
Дирижер: Sir Charles Mackerras-3. Violin Concerto in D major, Op. 61 3. Rondo (Allegro)
Композитор: Ludwig van Beethoven
Оркестр: Orchestra of the Age of Enlightenment [members of]
Исполнитель: Monica Huggett
Дирижер: Sir Charles Mackerras-4. Violin Concerto in E minor, Op. 64
Композитор: Felix Mendelssohn
Оркестр: Orchestra of the Age of Enlightenment [members of]
Исполнитель: Monica Huggett
Дирижер: Sir Charles Mackerras

EAC log

Exact Audio Copy V0.99 prebeta 4 from 23. January 2008
EAC extraction logfile from 25. December 2008, 11:02
Monica Huggett, Sir Charles Mackerras / Beethoven, Mendelssohn, Violin Concertos
Used drive : HL-DT-STDVDRAM GSA-T20N Adapter: 1 ID: 0
Read mode : Secure
Utilize accurate stream : Yes
Defeat audio cache : Yes
Make use of C2 pointers : No
Read offset correction : 667
Overread into Lead-In and Lead-Out : No
Fill up missing offset samples with silence : Yes
Delete leading and trailing silent blocks : No
Null samples used in CRC calculations : Yes
Used interface : Native Win32 interface for Win NT & 2000
Gap handling : Appended to previous track
Used output format : User Defined Encoder
Selected bitrate : 768 kBit/s
Quality : High
Add ID3 tag : No
Command line compressor : C:\Program Files\FLAC\flac.exe
Additional command line options : -8 -V -T "artist=%a" -T "title=%t" -T "album=%g" -T "date=%y" -T "tracknumber=%n" -T "genre=%m" %s
TOC of the extracted CD
Track | Start | Length | Start sector | End sector
---------------------------------------------------------
1 | 0:00.00 | 21:51.33 | 0 | 98357
2 | 21:51.33 | 7:58.47 | 98358 | 134254
3 | 29:50.05 | 9:15.23 | 134255 | 175902
4 | 39:05.28 | 12:54.07 | 175903 | 233959
5 | 51:59.35 | 7:13.73 | 233960 | 266507
6 | 59:13.33 | 7:03.22 | 266508 | 298254
Track 1
Filename C:\Documents and Settings\ISTABRAQ\My Documents\My Music\Monica Huggett, Sir Charles Mackerras\Beethoven, Mendelssohn, Violin Concertos\01 - Beethoven Violin Concerto in D, Op. 61. I. Allegro ma non troppo.wav
Pre-gap length 0:00:02.00
Peak level 100.0 %
Track quality 100.0 %
Test CRC 8CD99D2E
Copy CRC 8CD99D2E
Track not present in AccurateRip database
Copy OK
Track 2
Filename C:\Documents and Settings\ISTABRAQ\My Documents\My Music\Monica Huggett, Sir Charles Mackerras\Beethoven, Mendelssohn, Violin Concertos\02 - Beethoven Violin Concerto in D, Op. 61. II. Larghetto.wav
Pre-gap length 0:00:03.45
Peak level 40.9 %
Track quality 100.0 %
Test CRC CF460DD1
Copy CRC CF460DD1
Track not present in AccurateRip database
Copy OK
Track 3
Filename C:\Documents and Settings\ISTABRAQ\My Documents\My Music\Monica Huggett, Sir Charles Mackerras\Beethoven, Mendelssohn, Violin Concertos\03 - Beethoven Violin Concerto in D, Op. 61. III. Rondo.wav
Peak level 100.0 %
Track quality 100.0 %
Test CRC 26EE73FD
Copy CRC 26EE73FD
Track not present in AccurateRip database
Copy OK
Track 4
Filename C:\Documents and Settings\ISTABRAQ\My Documents\My Music\Monica Huggett, Sir Charles Mackerras\Beethoven, Mendelssohn, Violin Concertos\04 - Mendelssohn Violin Concerto in e, Op. 64. I. Allegro molto appassionato.wav
Pre-gap length 0:00:17.50
Peak level 75.9 %
Track quality 100.0 %
Test CRC 0CE06E46
Copy CRC 0CE06E46
Track not present in AccurateRip database
Copy OK
Track 5
Filename C:\Documents and Settings\ISTABRAQ\My Documents\My Music\Monica Huggett, Sir Charles Mackerras\Beethoven, Mendelssohn, Violin Concertos\05 - Mendelssohn Violin Concerto in e, Op. 64. II. Andante.wav
Peak level 66.4 %
Track quality 99.9 %
Test CRC D8060242
Copy CRC D8060242
Track not present in AccurateRip database
Copy OK
Track 6
Filename C:\Documents and Settings\ISTABRAQ\My Documents\My Music\Monica Huggett, Sir Charles Mackerras\Beethoven, Mendelssohn, Violin Concertos\06 - Mendelssohn Violin Concerto in e, Op. 64. III. Allegretto non troppo -- Allegro molto vivace.wav
Peak level 86.6 %
Track quality 100.0 %
Test CRC F196BAFC
Copy CRC F196BAFC
Track not present in AccurateRip database
Copy OK
None of the tracks are present in the AccurateRip database
No errors occurred
End of status report
[teatrix.ru].t9835.torrent 
Торрент: Зарегистрирован [ 2015-10-25 20:37 ] · 2FA5CCC1EB956909C7EDBC5A5A382FC2D8CEB210

Скачать .torrent

Скачать

13 KB

Статус: проверено
Скачан: 1 раз
Размер: 272 MB
terms.php



Быстрый ответ

Имя:

      
Для отправки сообщений необходимо включить JavaScript
Показать сообщения:    

Текущее время: 08-Дек 12:53

Часовой пояс: UTC + 3


Вы можете начинать темы
Вы можете отвечать на сообщения
Вы не можете редактировать свои сообщения
Вы не можете удалять свои сообщения
Вы не можете голосовать в опросах
Вы не можете прикреплять файлы к сообщениям
Вы можете скачивать файлы