(Classical) Danish piano concertos, vol. 2: August Winding & Emil Hartmann / Август Виннинг, Эмиль Хартман (Олег Маршев / Oleg Marshev, Matthias Aeschbacher) - 2001, FLAC (image+.cue) lossless


Статистика раздачи [Обновить пиров]
Размер:  245 MB   |    Зарегистрирован:  1 год 1 месяц   |    Скачан:  0 раз

Полного источника не было: Никогда

Личеров:  1  [  0 KB/s  ]   Подробная статистика пиров
 
   
 
 
 

[Цитировать]

Danish piano concertos, vol. 2: August Winding & Emil Hartmann / Август Виннинг, Эмиль Хартман (Олег Маршев / Oleg Marshev, Matthias Aeschbacher)
Жанр: Classical
Страна-производитель диска: Дания?
Год издания диска: 2001
Издатель (лейбл): Danacord
Номер по каталогу: DACOCD 581
Дата записи: ноябрь 2000 г., Сеннерборг.
Аудиокодек: FLAC
Тип рипа: image+.cue
Битрейт аудио: lossless
Продолжительность: 01:01:37
Источник: odeonmusic
Наличие сканов в содержимом раздачи: да
Треклист:
Август Хенрик Виннинг [sic!] (1835 — 1899).
Фортепианный концерт a-moll, op. 16 (1867 — 1868; перв. исп. 1869).
01. I. Allegro con fuoco [09:38].
02. II. Andantino [08:35].
03. III. Allegro giocoso [06:45].
Концертное аллегро c-moll для фортепиано с оркестром, op. 29 (ок. 1875).
04. Molto moderato. — Allegro non troppo. — Cadenza. — [Кода. Минорная версия] [14:45].
Вильгельм Эмилий Синн Хартман (Эмиль Хартман, 1836 — 1898).
Фортепианный концерт f-moll, op. 47 (1887 — 1890).
05. I. Allegro. — Cadenza [сокращенный вариант]. — [Кода.] Tempo I [10:09].
06. II. Canzonetta. Andante [08:09].
07. III. Finale. Allegro [07:44].
Исполнители:
Олег Маршев (фортепиано).
The Danish Philharmonic Orchestra, South Jutland (Sønderjullands Symfoniorkester).
Дирижер Matthias Aeschbacher.

Лог создания рипа

Exact Audio Copy V1.0 beta 3 from 29. August 2011
EAC extraction logfile from 26. March 2013, 17:25
Oleg Marshev / Danish Piano Concertos (Vol.2) - August Winding, Emil Hartmann
Used drive : TSSTcorpCDDVDW SH-222BB Adapter: 2 ID: 1
Read mode : SecureUtilize accurate stream : YesDefeat audio cache : YesMake use of C2 pointers : No
Read offset correction : 6Overread into Lead-In and Lead-Out : NoFill up missing offset samples with silence : YesDelete leading and trailing silent blocks : NoNull samples used in CRC calculations : YesUsed interface : Native Win32 interface for Win NT & 2000
Used output format : User Defined EncoderSelected bitrate : 1024 kBit/sQuality : HighAdd ID3 tag : NoCommand line compressor : C:\Program Files\Exact Audio Copy\Flac\flac.exeAdditional command line options : -8 -V -T "TITLE=%title%" -T "ARTIST=%artist%" -T "ALBUMARTIST=%albumartist%" -T "ALBUM=%albumtitle%" -T "DATE=%year%" -T "TRACKNUMBER=%tracknr%" -T "TRACKTOTAL=%numtracks%" -T "GENRE=%genre%" -T "COMMENT=%comment%" -T "PERFORMER=%albuminterpret%" -T "COMPOSER=%composer%" %source% -o %dest%
TOC of the extracted CD
Track | Start | Length | Start sector | End sector --------------------------------------------------------- 1 | 0:00.00 | 9:42.40 | 0 | 43689 2 | 9:42.40 | 8:37.32 | 43690 | 82496 3 | 18:19.72 | 6:52.33 | 82497 | 113429 4 | 25:12.30 | 14:56.02 | 113430 | 180631 5 | 40:08.32 | 9:30.18 | 180632 | 223399 6 | 49:38.50 | 5:48.59 | 223400 | 249558 7 | 55:27.34 | 6:10.08 | 249559 | 277316
Range status and errors
Selected range
Filename G:\Ripped general\[3876] Danish Piano Concertos (Vol.2) – August Winding, Emil Hartmann\Danish Piano Concertos (Vol.2) - August Winding, Emil Hartmann.wav
Peak level 100.0 % Extraction speed 7.0 X Range quality 100.0 % Test CRC 742A35A3 Copy CRC 742A35A3 Copy OK
No errors occurred
AccurateRip summary
Track 1 cannot be verified as accurate (confidence 1) [C3114AA4], AccurateRip returned [80F8E72A] (AR v2)Track 2 cannot be verified as accurate (confidence 1) [E081CF30], AccurateRip returned [E2BF944A] (AR v2)Track 3 cannot be verified as accurate (confidence 1) [45E4539C], AccurateRip returned [7F3EEF2E] (AR v2)Track 4 cannot be verified as accurate (confidence 1) [604CC88D], AccurateRip returned [EEF898EB] (AR v2)Track 5 cannot be verified as accurate (confidence 1) [41E5D90F], AccurateRip returned [FA39E225] (AR v2)Track 6 cannot be verified as accurate (confidence 1) [D1F6DAE7], AccurateRip returned [940764FB] (AR v2)Track 7 cannot be verified as accurate (confidence 1) [CDC765B8], AccurateRip returned [792BDF1E] (AR v2)
No tracks could be verified as accurateYou may have a different pressing from the one(s) in the database
End of status report

Содержание индексной карты (.CUE)

REM GENRE ClassicalREM DISCID 4C0E7107REM COMMENT "ExactAudioCopy v1.0b3"PERFORMER "Oleg Marshev & Matthias Aeschbacher"TITLE "Danish piano concertos, vol. 2 – August Winding & Emil Hartmann"FILE "Danish piano concertos, vol. 2 – August Winding & Emil Hartmann.flac" WAVE TRACK 01 AUDIO TITLE "Winding - Piano Concerto in A minor, Op. 16 - I. Allegro con fuoco" PERFORMER "Oleg Marshev & Matthias Aeschbacher" INDEX 01 00:00:00 TRACK 02 AUDIO TITLE "Winding - Piano Concerto in A minor, Op. 16 - II. Andantino" PERFORMER "Oleg Marshev & Matthias Aeschbacher" INDEX 01 09:42:40 TRACK 03 AUDIO TITLE "Winding - Piano Concerto in A minor, Op. 16 - III. Allegro giocoso" PERFORMER "Oleg Marshev & Matthias Aeschbacher" INDEX 01 18:19:72 TRACK 04 AUDIO TITLE "Winding - Concert Allegro for piano & orchestra in C minor, Op. 29" PERFORMER "Oleg Marshev & Matthias Aeschbacher" INDEX 00 25:07:30 INDEX 01 25:12:30 TRACK 05 AUDIO TITLE "Emil Hartmann - Piano Concerto in F minor, Op. 47 - I. Allegro" PERFORMER "Oleg Marshev & Matthias Aeschbacher" INDEX 00 40:00:55 INDEX 01 40:08:32 TRACK 06 AUDIO TITLE "Emil Hartmann - Piano Concerto in F minor, Op. 47 - II. Canzonetta. Andante" PERFORMER "Oleg Marshev & Matthias Aeschbacher" INDEX 01 49:38:50 TRACK 07 AUDIO TITLE "Emil Hartmann - Piano Concerto in F minor, Op. 47 - III. Finale. Allegro" PERFORMER "Oleg Marshev & Matthias Aeschbacher" INDEX 01 55:27:34

Вариант индексной карты (.CUE) с выставленными зазорами

REM GENRE ClassicalREM DISCID 4C0E7107REM COMMENT "ExactAudioCopy v1.0b3"PERFORMER "Oleg Marshev & Matthias Aeschbacher"TITLE "Danish piano concertos, vol. 2 – August Winding & Emil Hartmann"FILE "Danish piano concertos, vol. 2 – August Winding & Emil Hartmann.flac" WAVE TRACK 01 AUDIO TITLE "Winding - Piano Concerto in A minor, Op. 16 - I. Allegro con fuoco" PERFORMER "Oleg Marshev & Matthias Aeschbacher" INDEX 01 00:00:00 TRACK 02 AUDIO TITLE "Winding - Piano Concerto in A minor, Op. 16 - II. Andantino" PERFORMER "Oleg Marshev & Matthias Aeschbacher" INDEX 00 09:41:07 INDEX 01 09:42:40 TRACK 03 AUDIO TITLE "Winding - Piano Concerto in A minor, Op. 16 - III. Allegro giocoso" PERFORMER "Oleg Marshev & Matthias Aeschbacher" INDEX 01 18:19:72 TRACK 04 AUDIO TITLE "Winding - Concert Allegro for piano & orchestra in C minor, Op. 29" PERFORMER "Oleg Marshev & Matthias Aeschbacher" INDEX 00 25:07:30 INDEX 01 25:12:30 TRACK 05 AUDIO TITLE "Emil Hartmann - Piano Concerto in F minor, Op. 47 - I. Allegro" PERFORMER "Oleg Marshev & Matthias Aeschbacher" INDEX 00 40:00:55 INDEX 01 40:08:32 TRACK 06 AUDIO TITLE "Emil Hartmann - Piano Concerto in F minor, Op. 47 - II. Canzonetta. Andante" PERFORMER "Oleg Marshev & Matthias Aeschbacher" INDEX 00 49:36:68 INDEX 01 49:38:50 TRACK 07 AUDIO TITLE "Emil Hartmann - Piano Concerto in F minor, Op. 47 - III. Finale. Allegro" PERFORMER "Oleg Marshev & Matthias Aeschbacher" INDEX 00 55:26:58 INDEX 01 55:27:34
-Эмиль Хартман.
Концерты скрипичный, виолончельный и фортепианный (Christina Åstrand, Stanimir Todorov, Per Salo; Hannu Lintu).
[teatrix.ru].t9836.torrent 
Торрент: Зарегистрирован [ 2015-10-25 20:37 ] · C2714905148E4D5B73454BF419B5FA9CAC38FFB2

Скачать .torrent

Скачать

21 KB

Статус: проверено
Скачан: 0 раз
Размер: 245 MB
terms.php



Быстрый ответ

Имя:

      
Для отправки сообщений необходимо включить JavaScript
Показать сообщения:    

Текущее время: 04-Дек 21:26

Часовой пояс: UTC + 3


Вы можете начинать темы
Вы можете отвечать на сообщения
Вы не можете редактировать свои сообщения
Вы не можете удалять свои сообщения
Вы не можете голосовать в опросах
Вы не можете прикреплять файлы к сообщениям
Вы можете скачивать файлы