(Classical) Эмиль Хартман – Концерты скрипичный, виолончельный и фортепианный / Emil Hartmann – Violin, cello & piano concertos (Christina Astrand, Stanimir Todorov, Per Salo; Hannu Lintu) - 2005, FLAC (image+.cue) lossless


Статистика раздачи [Обновить пиров]
Размер:  309 MB   |    Зарегистрирован:  1 год 1 месяц   |    Скачан:  0 раз

Полного источника не было: Никогда

Личеров:  1  [  0 KB/s  ]   Подробная статистика пиров
 
   
 
 
 

[Цитировать]

Эмиль Хартман – Концерты скрипичный, виолончельный и фортепианный / Emil Hartmann – Violin, cello & piano concertos (Christina Åstrand, Stanimir Todorov, Per Salo; Hannu Lintu)
Жанр: Classical
Год издания диска: 2005
Издатель (лейбл): dacapo
Номер по каталогу: 6.220511
Дата записи: 1 — 5 сентября 2003 и 20 — 21 августа 2004 г., Хельсингборг.
Аудиокодек: FLAC
Тип рипа: image+.cue
Битрейт аудио: lossless
Продолжительность: 01:10:09
Источник: odeonmusic
Наличие сканов в содержимом раздачи: да
Треклист:
Вильгельм Эмилий Синн Хартман (Эмиль Хартман, 1836 — 1898).
Скрипичный концерт g-moll, op. 19 (нач. 1870-х — 1876; нов. ред. до 1881).
01. I. Allegro. — Cadenza. — [Кода.] Tempo I [09:10].
02. II. Andante. — Allegretto scherzando. — Tempo I. — [07:29].
03. III. Finale. L'istesso tempo. — Allegro vivace. — Cadenza. — [Кода.] Tempo I [08:36].
Виолончельный концерт d-moll, op. 26 (ок. 1879).
04. I. Allegro moderato [09:46].
05. II. Canzonetta. Andante. — [03:31].
06. III. Rondo pastorale. Allegretto. — Andantino. — Poco animato. — Più animato. — Più mosso [06:40].
Фортепианный концерт f-moll, op. 47 (1887 — 1890).
07. I. Allegro. — Cadenza [полный вариант]. — [Кода.] Tempo I [10:09].
08. II. Canzonetta. Andante [08:09].
09. III. Finale. Allegro [07:44].
Исполнители:
Christina Åstrand (скрипка),
Stanimir Todorov (виолончель),
Per Salo (фортепиано).
Helsingborg Symphony Orchestra.
Дирижер Hannu Lintu.

Лог создания рипа

Exact Audio Copy V1.0 beta 3 from 29. August 2011
EAC extraction logfile from 8. February 2013, 18:36
Hannu Lintu / Emil Hartmann - Concertos - Hannu Lintu
Used drive : TSSTcorpCDDVDW SH-222BB Adapter: 2 ID: 1
Read mode : SecureUtilize accurate stream : YesDefeat audio cache : YesMake use of C2 pointers : No
Read offset correction : 6Overread into Lead-In and Lead-Out : NoFill up missing offset samples with silence : YesDelete leading and trailing silent blocks : NoNull samples used in CRC calculations : YesUsed interface : Native Win32 interface for Win NT & 2000
Used output format : User Defined EncoderSelected bitrate : 1024 kBit/sQuality : HighAdd ID3 tag : NoCommand line compressor : C:\Program Files\Exact Audio Copy\Flac\flac.exeAdditional command line options : -8 -V -T "TITLE=%title%" -T "ARTIST=%artist%" -T "ALBUMARTIST=%albumartist%" -T "ALBUM=%albumtitle%" -T "DATE=%year%" -T "TRACKNUMBER=%tracknr%" -T "TRACKTOTAL=%numtracks%" -T "GENRE=%genre%" -T "COMMENT=%comment%" -T "PERFORMER=%albuminterpret%" -T "COMPOSER=%composer%" %source% -o %dest%
TOC of the extracted CD
Track | Start | Length | Start sector | End sector --------------------------------------------------------- 1 | 0:00.00 | 9:10.04 | 0 | 41253 2 | 9:10.04 | 7:29.39 | 41254 | 74967 3 | 16:39.43 | 8:36.06 | 74968 | 113673 4 | 25:15.49 | 9:18.56 | 113674 | 155579 5 | 34:34.30 | 3:26.21 | 155580 | 171050 6 | 38:00.51 | 6:08.19 | 171051 | 198669 7 | 44:08.70 | 10:09.57 | 198670 | 244401 8 | 54:18.52 | 8:09.05 | 244402 | 281081 9 | 62:27.57 | 7:44.45 | 281082 | 315926
Range status and errors
Selected range
Filename G:\Ripped general\[4372] Emil Hartmann – Concertos – Hannu Lintu\Emil Hartmann - Concertos - Hannu Lintu.wav
Peak level 92.5 % Extraction speed 7.9 X Range quality 100.0 % Test CRC DA5F6F5F Copy CRC DA5F6F5F Copy OK
No errors occurred
AccurateRip summary
Track 1 accurately ripped (confidence 1) [CD88669A] (AR v1)Track 2 accurately ripped (confidence 1) [2592AA74] (AR v1)Track 3 accurately ripped (confidence 1) [0A14F1D9] (AR v1)Track 4 accurately ripped (confidence 1) [75DD9015] (AR v1)Track 5 accurately ripped (confidence 1) [37075AB0] (AR v1)Track 6 accurately ripped (confidence 1) [F1967648] (AR v1)Track 7 accurately ripped (confidence 1) [0C32DB08] (AR v1)Track 8 accurately ripped (confidence 1) [EE76DFF5] (AR v1)Track 9 accurately ripped (confidence 1) [DB686E90] (AR v1)
All tracks accurately ripped
End of status report

Содержание индексной карты (.CUE)

REM GENRE ClassicalREM DATE 2005REM DISCID 6A107409REM COMMENT "ExactAudioCopy v1.0b3"PERFORMER "Hannu Lintu"TITLE "Emil Hartmann – Concertos – Hannu Lintu"FILE "Emil Hartmann – Concertos – Hannu Lintu.flac" WAVE TRACK 01 AUDIO TITLE "Violin Concerto in G minor, Op. 19 - I. Allegro" PERFORMER "Hannu Lintu" INDEX 01 00:00:00 TRACK 02 AUDIO TITLE "Violin Concerto in G minor, Op. 19 - II. Andante - Allegretto scherzando - Tempo I" PERFORMER "Hannu Lintu" INDEX 01 09:10:04 TRACK 03 AUDIO TITLE "Violin Concerto in G minor, Op. 19 - III. Finale. L'istesso tempo - Allegro vivace" PERFORMER "Hannu Lintu" INDEX 01 16:39:43 TRACK 04 AUDIO TITLE "Cello Concerto in D minor, op. 26 - I. Allegro moderato" PERFORMER "Hannu Lintu" INDEX 01 25:15:49 TRACK 05 AUDIO TITLE "Cello Concerto in D minor, op. 26 - II. Canzonetta. Andante" PERFORMER "Hannu Lintu" INDEX 01 34:34:30 TRACK 06 AUDIO TITLE "Cello Concerto in D minor, op. 26 - III. Rondo pastorale. Allegretto - Andantino" PERFORMER "Hannu Lintu" INDEX 01 38:00:51 TRACK 07 AUDIO TITLE "Piano Concerto in F minor, Op. 47 - I. Allegro" PERFORMER "Hannu Lintu" INDEX 01 44:08:70 TRACK 08 AUDIO TITLE "Piano Concerto in F minor, Op. 47 - II. Canzonetta. Andante" PERFORMER "Hannu Lintu" INDEX 01 54:18:52 TRACK 09 AUDIO TITLE "Piano Concerto in F minor, Op. 47 - III. Finale. Allegro" PERFORMER "Hannu Lintu" INDEX 01 62:27:57

Вариант индексной карты (.CUE) с выставленными зазорами

REM GENRE ClassicalREM DATE 2005REM DISCID 6A107409REM COMMENT "ExactAudioCopy v1.0b3"PERFORMER "Hannu Lintu"TITLE "Emil Hartmann – Concertos – Hannu Lintu"FILE "Emil Hartmann – Concertos – Hannu Lintu.flac" WAVE TRACK 01 AUDIO TITLE "Violin Concerto in G minor, Op. 19 - I. Allegro" PERFORMER "Hannu Lintu" INDEX 01 00:00:00 TRACK 02 AUDIO TITLE "Violin Concerto in G minor, Op. 19 - II. Andante - Allegretto scherzando - Tempo I" PERFORMER "Hannu Lintu" INDEX 00 09:09:38 INDEX 01 09:10:04 TRACK 03 AUDIO TITLE "Violin Concerto in G minor, Op. 19 - III. Finale. L'istesso tempo - Allegro vivace" PERFORMER "Hannu Lintu" INDEX 01 16:39:32 TRACK 04 AUDIO TITLE "Cello Concerto in D minor, op. 26 - I. Allegro moderato" PERFORMER "Hannu Lintu" INDEX 00 25:13:34 INDEX 01 25:15:49 TRACK 05 AUDIO TITLE "Cello Concerto in D minor, op. 26 - II. Canzonetta. Andante" PERFORMER "Hannu Lintu" INDEX 01 34:34:30 TRACK 06 AUDIO TITLE "Cello Concerto in D minor, op. 26 - III. Rondo pastorale. Allegretto - Andantino" PERFORMER "Hannu Lintu" INDEX 00 37:58:23 INDEX 01 38:00:51 TRACK 07 AUDIO TITLE "Piano Concerto in F minor, Op. 47 - I. Allegro" PERFORMER "Hannu Lintu" INDEX 00 44:06:15 INDEX 01 44:08:70 TRACK 08 AUDIO TITLE "Piano Concerto in F minor, Op. 47 - II. Canzonetta. Andante" PERFORMER "Hannu Lintu" INDEX 00 54:17:59 INDEX 01 54:18:52 TRACK 09 AUDIO TITLE "Piano Concerto in F minor, Op. 47 - III. Finale. Allegro" PERFORMER "Hannu Lintu" INDEX 01 62:27:57
-Эмиль Хартман.
[
Danish piano concertos, vol. 2: August Winding & Emil Hartmann / Август Виннинг, Эмиль Хартман (Олег Маршев / Oleg Marshev, Matthias Aeschbacher).
[teatrix.ru].t9837.torrent 
Торрент: Зарегистрирован [ 2015-10-25 20:37 ] · 9620EE725653886B916874F096E45A504A1F3904

Скачать .torrent

Скачать

14 KB

Статус: проверено
Скачан: 0 раз
Размер: 309 MB
terms.php



Быстрый ответ

Имя:

      
Для отправки сообщений необходимо включить JavaScript
Показать сообщения:    

Текущее время: 08-Дек 07:08

Часовой пояс: UTC + 3


Вы можете начинать темы
Вы можете отвечать на сообщения
Вы не можете редактировать свои сообщения
Вы не можете удалять свои сообщения
Вы не можете голосовать в опросах
Вы не можете прикреплять файлы к сообщениям
Вы можете скачивать файлы