(Concertos) Wolfgang Amadeus Mozart - Piano Concerto No.9 {Jeunehomme}, Rondo in A major, Ch'io mi scordi di te? / Joseph Haydn - Piano Concerto No.11 (Alexandre Tharaud, Joyce DiDonato, Labadie) - 2014, FLAC (image+.cue) lossless


Статистика раздачи [Обновить пиров]
Размер:  278 MB   |    Зарегистрирован:  1 год 1 месяц   |    Скачан:  0 раз

Полного источника не было: Никогда

Личеров:  1  [  0 KB/s  ]   Подробная статистика пиров
 
   
 
 
 

[Цитировать]

Wolfgang Amadeus Mozart & Joseph Haydn - Piano Concertos {Jeunehomme}Alexandre Tharaud Жанр: Classical
Страна-производитель диска: EU
Год издания диска: 2014
Издатель (лейбл): Erato | Warner
Номер по каталогу: 0825646262687
Аудиокодек: FLAC
Тип рипа: image+.cue
Битрейт аудио: lossless
Продолжительность: 1:10:56
Источник: скачано с odeonmusic
Наличие сканов в содержимом раздачи: да
Треклист:
W.A.Mozart - Piano Concerto No. 9 in E flat major "Jeunehomme", K. 271
1 1. Allegro 10:32
2 2. Andantino 11:11
3 3. Rondo (Presto) 9:17
4 Rondo in A major, for piano and orchestra, K. 386 9:31
5 Ch'io mi scordi di te?... Non temer, amato bene, concert aria, K. 505 10:24
J.Haydn - Piano Concerto No.11 in D major, Hob. XVIII:11
6 1. Vivace 8:21
7 2. Un poco Adagio 7:25
8 3. Rondo all'Ungarese 4:11
Исполнители:
Alexandre Tharaud - piano
Joyce DiDonato - mezzo-soprano (#5)
Bernard Labadie - conductor
Les Violons du Roy - orchestra

Лог создания рипа

Exact Audio Copy V1.0 beta 3 from 29. August 2011
EAC extraction logfile from 14. November 2014, 16:40
Alexandre Tharaud / Mozart, Haydn - Piano Concertos - Alexandre Tharaud
Used drive : TSSTcorpCDDVDW SH-222BB Adapter: 2 ID: 1
Read mode : SecureUtilize accurate stream : YesDefeat audio cache : YesMake use of C2 pointers : No
Read offset correction : 6Overread into Lead-In and Lead-Out : NoFill up missing offset samples with silence : YesDelete leading and trailing silent blocks : NoNull samples used in CRC calculations : YesUsed interface : Native Win32 interface for Win NT & 2000
Used output format : User Defined EncoderSelected bitrate : 896 kBit/sQuality : HighAdd ID3 tag : NoCommand line compressor : C:\Program Files\Exact Audio Copy\FLAC\FLAC.EXEAdditional command line options : -8 -V -T "TITLE=%title%" -T "ARTIST=%artist%" -T "ALBUMARTIST=%albumartist%" -T "ALBUM=%albumtitle%" -T "DATE=%year%" -T "TRACKNUMBER=%tracknr%" -T "TRACKTOTAL=%numtracks%" -T "GENRE=%genre%" -T "COMMENT=%comment%" -T "PERFORMER=%albuminterpret%" -T "COMPOSER=%composer%" %source% -o %dest%
TOC of the extracted CD
Track | Start | Length | Start sector | End sector --------------------------------------------------------- 1 | 0:00.00 | 10:32.02 | 0 | 47401 2 | 10:32.02 | 11:11.55 | 47402 | 97781 3 | 21:43.57 | 9:17.58 | 97782 | 139614 4 | 31:01.40 | 9:31.34 | 139615 | 182473 5 | 40:32.74 | 10:24.67 | 182474 | 229340 6 | 50:57.66 | 8:21.17 | 229341 | 266932 7 | 59:19.08 | 7:25.70 | 266933 | 300377 8 | 66:45.03 | 4:11.56 | 300378 | 319258
Range status and errors
Selected range
Filename G:\Ripped general\[7671] Mozart, Haydn – Piano Concertos – Alexandre Tharaud\Mozart, Haydn - Piano Concertos - Alexandre Tharaud.wav
Peak level 99.3 % Extraction speed 4.9 X Range quality 100.0 % Test CRC 67FF8D45 Copy CRC 67FF8D45 Copy OK
No errors occurred
AccurateRip summary
Track 1 accurately ripped (confidence 1) [D7203EEA] (AR v2)Track 2 accurately ripped (confidence 1) [FF3030DF] (AR v2)Track 3 accurately ripped (confidence 1) [C4FB392C] (AR v2)Track 4 accurately ripped (confidence 1) [05CA949F] (AR v2)Track 5 accurately ripped (confidence 1) [8CC31708] (AR v2)Track 6 accurately ripped (confidence 1) [F4B5DE28] (AR v2)Track 7 accurately ripped (confidence 1) [68FC5F3B] (AR v2)Track 8 accurately ripped (confidence 1) [1166B8B9] (AR v2)
All tracks accurately ripped
End of status report
==== Log checksum B7673807482A13C59C43E31EAB718EB5B69B6F331E04C49527901472816805F7 ====

Лог проверки качества

AUDIOCHECKER v2.0 beta (build 457) - by Dester - opdester@freemail.hu~~~~~~~~~~~~~~~~~~~~~~~~~~~~~~~~~~-=== DO NOT EDIT THIS FILE! ===-
Path: ...\Mozart, Haydn - Piano Concertos (Tharaud)
1 -=- Mozart, Haydn - Piano Concertos - Alexandre Tharaud.flac -=- CDDA (99%)
163494708
[teatrix.ru].t9838.torrent 
Торрент: Зарегистрирован [ 2015-10-25 20:37 ] · 7646689B6FC5592162159F725CBE008BD45CC122

Скачать .torrent

Скачать

13 KB

Статус: проверено
Скачан: 0 раз
Размер: 278 MB
terms.php



Быстрый ответ

Имя:

      
Для отправки сообщений необходимо включить JavaScript
Показать сообщения:    

Текущее время: 05-Дек 23:32

Часовой пояс: UTC + 3


Вы можете начинать темы
Вы можете отвечать на сообщения
Вы не можете редактировать свои сообщения
Вы не можете удалять свои сообщения
Вы не можете голосовать в опросах
Вы не можете прикреплять файлы к сообщениям
Вы можете скачивать файлы