(Classical) Samuel Barber, Edgar Meyer - Violin Concertos - Hilary Hahn, The Saint Paul Chamber Orchestra, Hugh Wolff - 2000, FLAC (image+.cue) lossless


Статистика раздачи [Обновить пиров]
Размер:  229 MB   |    Зарегистрирован:  1 год 1 месяц   |    Скачан:  0 раз

Полного источника не было: Никогда

Личеров:  1  [  0 KB/s  ]   Подробная статистика пиров
 
   
 
 
 

[Цитировать]

Samuel Barber, Edgar Meyer - Violin Concertos - Hilary Hahn, The Saint Paul Chamber Orchestra, Hugh Wolff
Жанр: Classical
Год издания диска: 2000
Издатель (лейбл): Sony Classical
Номер по каталогу: SK 89029
Дата записи: 1999
Аудиокодек: FLAC
Тип рипа: image+.cue
Битрейт аудио: lossless
Продолжительность: 49:43
Источник: собственный рип
Наличие сканов в содержимом раздачи: да
Треклист:
Samuel Barber (1910-1981)
[1]-[3] Concerto for Violin and Orchestra, Op.14
Edgar Meyer (*1960)
[4]-[5] Violin Concerto
Исполнители:
Hilary Hahn violin
The Saint Paul Chamber Orchestra
Hugh Wolff

Лог создания рипа

Exact Audio Copy V1.0 beta 3 from 29. August 2011
EAC extraction logfile from 16. December 2014, 21:37
Hilary Hahn, The Saint Paul Chamber Orchestra, Hugh Wolff / Barber, Meyer - Violin Concertos
Used drive : HL-DT-STDVDRAM GU70N Adapter: 0 ID: 0
Read mode : SecureUtilize accurate stream : YesDefeat audio cache : YesMake use of C2 pointers : No
Read offset correction : 48Overread into Lead-In and Lead-Out : NoFill up missing offset samples with silence : YesDelete leading and trailing silent blocks : NoNull samples used in CRC calculations : YesUsed interface : Native Win32 interface for Win NT & 2000
Used output format : User Defined EncoderSelected bitrate : 128 kBit/sQuality : HighAdd ID3 tag : NoCommand line compressor : C:\Program Files (x86)\Exact Audio Copy\Flac\flac.exeAdditional command line options : -V -8 -T "Date=%year%" -T "Genre=%genre%" %source%
TOC of the extracted CD
Track | Start | Length | Start sector | End sector --------------------------------------------------------- 1 | 0:00.00 | 10:33.05 | 0 | 47479 2 | 10:33.05 | 9:07.27 | 47480 | 88531 3 | 19:40.32 | 3:33.73 | 88532 | 104579 4 | 23:14.30 | 10:24.25 | 104580 | 151404 5 | 33:38.55 | 16:04.40 | 151405 | 223744
Range status and errors
Selected range
Filename C:\temp\Barber, Meyer - Violin Concertos - Hilary Hahn\Barber, Meyer - Violin Concertos.wav
Peak level 98.9 % Extraction speed 4.8 X Range quality 100.0 % Test CRC A21516F5 Copy CRC A21516F5 Copy OK
No errors occurred
AccurateRip summary
Track 1 accurately ripped (confidence 59) [0A2A3A5E] (AR v2)Track 2 accurately ripped (confidence 59) [EF43AA75] (AR v2)Track 3 accurately ripped (confidence 58) [C9779F3C] (AR v2)Track 4 accurately ripped (confidence 59) [EDDD1230] (AR v2)Track 5 accurately ripped (confidence 59) [04359DA9] (AR v2)
All tracks accurately ripped
End of status report
==== Log checksum 4E1BB17F873B92F6C9C6EF64291BF867103DEDB1A93EB28966775A88BC5C3FB8 ====
[teatrix.ru].t9839.torrent 
Торрент: Зарегистрирован [ 2015-10-25 20:37 ] · 29B0B143FA82AF762B4332B89AEF7BC0A9FCEDAB

Скачать .torrent

Скачать

38 KB

Статус: проверено
Скачан: 0 раз
Размер: 229 MB
terms.php



Быстрый ответ

Имя:

      
Для отправки сообщений необходимо включить JavaScript
Показать сообщения:    

Текущее время: 05-Дек 01:21

Часовой пояс: UTC + 3


Вы можете начинать темы
Вы можете отвечать на сообщения
Вы не можете редактировать свои сообщения
Вы не можете удалять свои сообщения
Вы не можете голосовать в опросах
Вы не можете прикреплять файлы к сообщениям
Вы можете скачивать файлы