(Baroque Concerto) Arne, C.P.E. Bach, J.C. Bach, Haydn - Harpsichord Concertos and Overtures - Marriner, Malcolm - 1994, FLAC (tracks+.cue) lossless


Статистика раздачи [Обновить пиров]
Размер:  358 MB   |    Зарегистрирован:  1 год 1 месяц   |    Скачан:  0 раз

Полного источника не было: Никогда

Личеров:  1  [  0 KB/s  ]   Подробная статистика пиров
 
   
 
 
 

[Цитировать]

Thomas Augustine Arne, Franz Joseph Haydn, Johann Sebastian Bach, Carl Philipp Emmanuel Bach
Harpsichord Concertos and Overtures


Жанр: Baroque Concerto
Страна-производитель диска: Germany
Год издания диска: 1994
Издатель (лейбл): Decca
Номер по каталогу: 440 033-2
Дата записи: 1967-1968
Аудиокодек: FLAC
Тип рипа: tracks+.cue
Битрейт аудио: lossless
Источник: скачано с
Наличие сканов в содержимом раздачи: нет
Треклист:
• Thomas Augustine Arne •
1 Overture no 1 in E minor
2 Favourite Concertos (6) for Keyboard: no 5 in G minor
• Carl Philipp Emmanuel Bach •
3 Concertos (6) for Harpsichord, Wq 43: no 4 in C minor, H 474
• Johann Sebastian Bach •
4-6 Concerto for Keyboard in A major
• Franz Joseph Haydn •
7-9 Concerto for Keyboard in D major, H 18 no 11
10 Sinfonia in D major, H 1a no 7
Исполнители:
• Performer: George Malcolm •
• Conductor: Sir Neville Marriner •
• Orchestra/Ensemble: Academy of St. Martin in the Fields •

Лог создания рипа

Exact Audio Copy V1.0 beta 3 from 29. August 2011
EAC extraction logfile from 15. July 2014, 8:06
Various / Harpsichord Concertos and Overtures
Used drive : PIONEER DVD-RW DVR-110 Adapter: 1 ID: 1
Read mode : Burst
Read offset correction : 48Overread into Lead-In and Lead-Out : NoFill up missing offset samples with silence : YesDelete leading and trailing silent blocks : NoNull samples used in CRC calculations : YesUsed interface : Native Win32 interface for Win NT & 2000Gap handling : Appended to previous track
Used output format : User Defined EncoderSelected bitrate : 1024 kBit/sQuality : HighAdd ID3 tag : NoCommand line compressor : C:\Program Files\Exact Audio Copy\FLAC\FLAC.EXEAdditional command line options : -8 -V -T "ARTIST=%artist%" -T "TITLE=%title%" -T "ALBUM=%albumtitle%" -T "DATE=%year%" -T "TRACKNUMBER=%tracknr%" -T "GENRE=%genre%" -T "PERFORMER=%albuminterpret%" -T "COMPOSER=%composer%" %haslyrics%--tag-from-file=LYRICS="%lyricsfile%"%haslyrics% -T "ALBUMARTIST=%albumartist%" -T "DISCNUMBER=%cdnumber%" -T "TOTALDISCS=%totalcds%" -T "TOTALTRACKS=%numtracks%" -T "COMMENT=%comment%" %source% -o %dest%
TOC of the extracted CD
Track | Start | Length | Start sector | End sector --------------------------------------------------------- 1 | 0:00.33 | 7:39.00 | 33 | 34457 2 | 7:39.33 | 10:40.00 | 34458 | 82457 3 | 18:19.33 | 11:46.00 | 82458 | 135407 4 | 30:05.33 | 7:44.00 | 135408 | 170207 5 | 37:49.33 | 6:56.00 | 170208 | 201407 6 | 44:45.33 | 4:50.00 | 201408 | 223157 7 | 49:35.33 | 7:36.00 | 223158 | 257357 8 | 57:11.33 | 4:57.00 | 257358 | 279632 9 | 62:08.33 | 4:10.00 | 279633 | 298382 10 | 66:18.33 | 4:36.72 | 298383 | 319154
Track 1
Filename C:\01 - Arne, Thomas (1710-1778) - Overture No.1 in E minor.wav
Pre-gap length 0:00:02.44
Peak level 85.4 % Extraction speed 6.9 X Test CRC A2EB20E1 Copy CRC A2EB20E1 Accurately ripped (confidence 4) [9D6C1AD8] (AR v2) Copy OK
Track 2
Filename C:\02 - Arne, Thomas (1710-1778) - Harpsichord Concerto No.5 in G minor.wav
Pre-gap length 0:00:07.24
Peak level 88.6 % Extraction speed 8.3 X Test CRC A8BAC724 Copy CRC 43458637 Cannot be verified as accurate (confidence 4) [4ECDBBF7], AccurateRip returned [68AE074B] (AR v2) Copy OK
Track 3
Filename C:\03 - Bach, Carl Philipp Emanuel (1714-1788) - Harpsichord Concerto in C minor, Wq.43 No.4.wav
Pre-gap length 0:00:06.60
Peak level 87.5 % Extraction speed 9.7 X Test CRC 5134F901 Copy CRC 5134F901 Accurately ripped (confidence 4) [B650F6D9] (AR v2) Copy OK
Track 4
Filename C:\04 - Bach, Johann Christian (1735-1782) - Harpsichord Concerto in A major, T297,1(ii)- 1. Allegro.wav
Pre-gap length 0:00:06.26
Timing problem 0:07:12
Peak level 100.0 % Extraction speed 10.3 X Test CRC 10AE4A01 Copy CRC 10AE4A01 Accurately ripped (confidence 4) [AF05596E] (AR v2) Copy finished
Track 5
Filename C:\05 - Bach, Johann Christian (1735-1782) - 2. Andante ma non troppo.wav
Pre-gap length 0:00:03.84
Peak level 50.0 % Extraction speed 11.5 X Test CRC C96B3000 Copy CRC C96B3000 Accurately ripped (confidence 4) [F87F5A69] (AR v2) Copy OK
Track 6
Filename C:\06 - Bach, Johann Christian (1735-1782) - 3. Allegro.wav
Pre-gap length 0:00:04.24
Peak level 82.7 % Extraction speed 12.1 X Test CRC D6D876A0 Copy CRC D6D876A0 Accurately ripped (confidence 4) [DE99636C] (AR v2) Copy OK
Track 7
Filename C:\07 - Haydn, Joseph (1732-1809) - Harpsichord Concerto in D major, Hob.XVIII-11- 1. Vivace.wav
Pre-gap length 0:00:07.20
Peak level 100.0 % Extraction speed 12.7 X Test CRC FDD0F9E6 Copy CRC D14FC513 Cannot be verified as accurate (confidence 4) [88C2CD3E], AccurateRip returned [7140892E] (AR v2) Copy OK
Track 8
Filename C:\08 - Haydn, Joseph (1732-1809) - 2. Un poco adagio.wav
Pre-gap length 0:00:03.90
Peak level 59.0 % Extraction speed 13.2 X Test CRC B8BC49AD Copy CRC B8BC49AD Accurately ripped (confidence 4) [5A24E32D] (AR v2) Copy OK
Track 9
Filename C:\09 - Haydn, Joseph (1732-1809) - 3. Rondo all'Ungherese. Allegro assai.wav
Pre-gap length 0:00:04.04
Peak level 100.0 % Extraction speed 13.6 X Test CRC AAF4DF2D Copy CRC AAF4DF2D Accurately ripped (confidence 4) [5EA55533] (AR v2) Copy OK
Track 10
Filename C:\10 - Haydn, Joseph (1732-1809) - Overture (Sinfonia) in D major, Hob.Ia-7.wav
Pre-gap length 0:00:06.24
Peak level 95.1 % Extraction speed 14.0 X Test CRC 14B7D58B Copy CRC FE288F2B Cannot be verified as accurate (confidence 4) [FF5DD6BB], AccurateRip returned [C6E180DF] (AR v2) Copy OK
7 track(s) accurately ripped 3 track(s) could not be verified as accurate
Some tracks could not be verified as accurate
No errors occurred
End of status report
==== Log checksum 3F8B22572D283F68AD72124785D2ECBB88680B8784E4641F1ACBA494D367356C ====

Содержание индексной карты (.CUE)

REM GENRE "18th century; Classical; Concerto"REM DATE 1994REM DISCID 8A109F0AREM COMMENT "ExactAudioCopy v1.0b3"CATALOG 0028944003321PERFORMER "Various"TITLE "Harpsichord Concertos and Overtures"FILE "01 - Arne, Thomas (1710-1778) - Overture No.1 in E minor.wav" WAVE TRACK 01 AUDIO TITLE "Overture No.1 in E minor" PERFORMER "Arne, Thomas (1710-1778)" ISRC GBF076711300 PREGAP 00:00:33 INDEX 01 00:00:00 TRACK 02 AUDIO TITLE "Harpsichord Concerto No.5 in G minor" PERFORMER "Arne, Thomas (1710-1778)" ISRC GBF076711310 INDEX 00 07:31:57FILE "02 - Arne, Thomas (1710-1778) - Harpsichord Concerto No.5 in G minor.wav" WAVE INDEX 01 00:00:00 TRACK 03 AUDIO TITLE "Harpsichord Concerto in C minor, Wq.43 No.4" PERFORMER "Bach, Carl Philipp Emanuel (1714-1788)" ISRC GBF076711320 INDEX 00 10:33:30FILE "03 - Bach, Carl Philipp Emanuel (1714-1788) - Harpsichord Concerto in C minor, Wq.43 No.4.wav" WAVE INDEX 01 00:00:00 TRACK 04 AUDIO TITLE "Harpsichord Concerto in A major, T297/1(ii): 1. Allegro" PERFORMER "Bach, Johann Christian (1735-1782)" ISRC GBF076810531 INDEX 00 11:39:55FILE "04 - Bach, Johann Christian (1735-1782) - Harpsichord Concerto in A major, T297,1(ii)- 1. Allegro.wav" WAVE INDEX 01 00:00:00 TRACK 05 AUDIO TITLE "2. Andante ma non troppo" PERFORMER "Bach, Johann Christian (1735-1782)" ISRC GBF076810532 INDEX 00 07:40:12FILE "05 - Bach, Johann Christian (1735-1782) - 2. Andante ma non troppo.wav" WAVE INDEX 01 00:00:00 TRACK 06 AUDIO TITLE "3. Allegro" PERFORMER "Bach, Johann Christian (1735-1782)" ISRC GBF076810533 INDEX 00 06:51:57FILE "06 - Bach, Johann Christian (1735-1782) - 3. Allegro.wav" WAVE INDEX 01 00:00:00 TRACK 07 AUDIO TITLE "Harpsichord Concerto in D major, Hob.XVIII:11: 1. Vivace" PERFORMER "Haydn, Joseph (1732-1809)" ISRC GBF076810541 INDEX 00 04:42:60FILE "07 - Haydn, Joseph (1732-1809) - Harpsichord Concerto in D major, Hob.XVIII-11- 1. Vivace.wav" WAVE INDEX 01 00:00:00 TRACK 08 AUDIO TITLE "2. Un poco adagio" PERFORMER "Haydn, Joseph (1732-1809)" ISRC GBF076810542 INDEX 00 07:32:07FILE "08 - Haydn, Joseph (1732-1809) - 2. Un poco adagio.wav" WAVE INDEX 01 00:00:00 TRACK 09 AUDIO TITLE "3. Rondo all'Ungherese. Allegro assai" PERFORMER "Haydn, Joseph (1732-1809)" ISRC GBF076810543 INDEX 00 04:52:72FILE "09 - Haydn, Joseph (1732-1809) - 3. Rondo all'Ungherese. Allegro assai.wav" WAVE INDEX 01 00:00:00 TRACK 10 AUDIO TITLE "Overture (Sinfonia) in D major, Hob.Ia:7" PERFORMER "Haydn, Joseph (1732-1809)" ISRC GBF076810550 INDEX 00 04:03:57FILE "10 - Haydn, Joseph (1732-1809) - Overture (Sinfonia) in D major, Hob.Ia-7.wav" WAVE INDEX 01 00:00:00
[teatrix.ru].t9840.torrent 
Торрент: Зарегистрирован [ 2015-10-25 20:37 ] · 3FACA9080DD19E11D23B069862DC53DCBFD48A30

Скачать .torrent

Скачать

16 KB

Статус: проверено
Скачан: 0 раз
Размер: 358 MB
terms.php



Быстрый ответ

Имя:

      
Для отправки сообщений необходимо включить JavaScript
Показать сообщения:    

Текущее время: 09-Дек 01:07

Часовой пояс: UTC + 3


Вы можете начинать темы
Вы можете отвечать на сообщения
Вы не можете редактировать свои сообщения
Вы не можете удалять свои сообщения
Вы не можете голосовать в опросах
Вы не можете прикреплять файлы к сообщениям
Вы можете скачивать файлы