(Classical, 20th Century) Allan Pettersson - Violin Concerto No. 2 (Isabelle van Keulen, Swedish Radio Symphony Orchestra, Thomas Dausgaard) - 2006, FLAC (image+.cue) lossless


Статистика раздачи [Обновить пиров]
Размер:  282 MB   |    Зарегистрирован:  1 год 1 месяц   |    Скачан:  0 раз

Полного источника не было: Никогда

Личеров:  1  [  0 KB/s  ]   Подробная статистика пиров
 
   
 
 
 

[Цитировать]

Allan Pettersson - Violin Concerto No. 2 (Isabelle van Keulen , Swedish Radio Symphony Orchestra, Thomas Dausgaard)
Жанр: Classical, 20th Century
Страна-производитель диска: Germany
Год издания диска: 2006
Издатель (лейбл): cpo
Номер по каталогу: 777 1992
Дата записи: 1999
Аудиокодек: FLAC
Тип рипа: image+.cue
Битрейт аудио: lossless
Продолжительность: 55:21
Источник: собственный рип
сайт-источник/ник/другое: WEB
Наличие сканов в содержимом раздачи: да
Треклист:
Аллан Петтерссон (1911-1980)
Violin Concerto No. 2
1. tempo 1 2:10
2. quasi doppio movimento 7:45
3. a tempo (30) 3:48
4. a tempo (41) 5:15
5. tempo 2 6:25
6. a tempo 5:41
7. a tempo 9:18
8. cantando, tempo IV 6:28
9. cantando, tempo 4 5:37
10. a tempo 2:47
Исполнители:
Isabelle van Keulen (Violin)
Swedish Radio Symphony Orchestra
Thomas Dausgaard

Лог создания рипа

Exact Audio Copy V0.99 prebeta 4 from 23. January 2008
EAC Auslese-Logdatei vom 1. November 2008, 12:03
- / Pettersson - Violin Concerto No 2 (revised)
Benutztes Laufwerk : PIONEER DVD-RW DVR-115D Adapter: 0 ID: 0
Lesemodus : SicherBenutze Accurate Stream : JaAudio Puffer abgeschaltet : JaBenutze C2 Fehlerinformationen : Nein
Leseoffset Korrektur : 48Ьberlesen in das Lead-In und Lead-Out : NeinFьlle fehlende Offsetsample mit Stille auf : JaLцsche fьhrende und nachfolgende stille Blцcke : NeinNull Samples gehen in CRC Berechnungen ein : NeinBenutzte Schnittstelle : Installierte externe ASPI Schnittstelle
Benutztes Ausgabeformat : Benutzerdefinierter KomprimiererGewдhlte Bitrate : 768 kBit/sQualitдt : HochFьge ID3 Tag hinzu : JaKommandozeilen Komprimierer : C:\Programme\Exact Audio Copy\FLAC\FLAC.EXEZusдtzliche Kommandozeilenoptionen : -8 -V -T "ARTIST=%a" -T "TITLE=%t" -T "ALBUM=%g" -T "DATE=%y" -T "TRACKNUMBER=%n" -T "GENRE=%m" -T "COMMENT=%e" %s -o %d
TOC der ausgelesenen CD
Track | Start | Lдnge | Startsektor | Endsektor ------------------------------------------------------- 1 | 0:00.00 | 2:09.72 | 0 | 9746 2 | 2:09.72 | 7:45.59 | 9747 | 44680 3 | 9:55.56 | 3:48.57 | 44681 | 61837 4 | 13:44.38 | 5:15.16 | 61838 | 85478 5 | 18:59.54 | 6:26.19 | 85479 | 114447 6 | 25:25.73 | 5:41.72 | 114448 | 140094 7 | 31:07.70 | 9:18.25 | 140095 | 181969 8 | 40:26.20 | 6:28.64 | 181970 | 211133 9 | 46:55.09 | 5:38.07 | 211134 | 236490 10 | 52:33.16 | 2:48.36 | 236491 | 249126
Bereichsstatus und Fehler
Gewдhlter Bereich
Dateiname L:\_Musik\__Composers\Pettersson, Allan\Pettersson - Violin Concerto No 2 (revised) - van Keulen, SRSO, Dausgaard_CPO_777 199-2\Disc\Pettersson - Violin Concerto No 2 (revised).wav
Spitzenpegel 93.1 % Bereichsqualitдt 100.0 % Kopie CRC 52FCD290 Kopie OK
Keine Fehler aufgetreten
AccurateRip Ьbersicht
Track 1 nicht in Datenbank enthaltenTrack 2 nicht in Datenbank enthaltenTrack 3 nicht in Datenbank enthaltenTrack 4 nicht in Datenbank enthaltenTrack 5 nicht in Datenbank enthaltenTrack 6 nicht in Datenbank enthaltenTrack 7 nicht in Datenbank enthaltenTrack 8 nicht in Datenbank enthaltenTrack 9 nicht in Datenbank enthaltenTrack 10 nicht in Datenbank enthalten
Keiner der Tracks ist in der AccurateRip Datenbank vorhanden
Ende des Statusreports
[teatrix.ru].t9841.torrent 
Торрент: Зарегистрирован [ 2015-10-25 20:37 ] · 53449814C3FABFA1F37418510EAA12E40ADB1A8D

Скачать .torrent

Скачать

12 KB

Статус: проверено
Скачан: 0 раз
Размер: 282 MB
terms.php



Быстрый ответ

Имя:

      
Для отправки сообщений необходимо включить JavaScript
Показать сообщения:    

Текущее время: 04-Дек 00:48

Часовой пояс: UTC + 3


Вы можете начинать темы
Вы можете отвечать на сообщения
Вы не можете редактировать свои сообщения
Вы не можете удалять свои сообщения
Вы не можете голосовать в опросах
Вы не можете прикреплять файлы к сообщениям
Вы можете скачивать файлы