(Classical) Дюссек – Фортепианный концерт Es-dur, op. 70 (Craw 238); Фортепианные сонаты № 24 и 28 / Dussek – Piano concerto & sonatas (Jan Novotny, Leos Svarovsky) - 1999, FLAC (image+.cue) lossless


Статистика раздачи [Обновить пиров]
Размер:  234 MB   |    Зарегистрирован:  1 год 1 месяц   |    Скачан:  0 раз

Полного источника не было: Никогда

Личеров:  2  [  0 KB/s  ]   Подробная статистика пиров
 
   
 
 
 

[Цитировать]

Дюссек – Фортепианный концерт Es-dur, op. 70 (Craw 238); Фортепианные сонаты № 24 и 28 / Dussek – Piano concerto & sonatas (Jan Novotný, Leoš Svárovský)
Жанр: Classical
Страна-производитель диска: Чехия?
Год издания диска: 1999
Издатель (лейбл): Supraphon
Номер по каталогу: SU 3659-2 031
Дата записи: май и июнь 1999 г., Прага.
Аудиокодек: FLAC
Тип рипа: image+.cue
Битрейт аудио: lossless
Продолжительность: 01:12:28
Источник: odeonmusic
Наличие сканов в содержимом раздачи: да
Треклист:
Ян Ладислав Дюссек (1760 — 1812).
Фортепианный концерт Es-dur, op. 70, C. 238 (перв. исп. 1810).
01. I. Allegro brillante ma non troppo [14:16].
02. II. Adagio ma non troppo lento. — [05:03].
03. III. Rondo. Allegretto moderatissimo [08:26].
Фортепианная соната № 24 fis-moll «Гармоническая элегия на смерть Луи Фердинанда, принца Прусского», op. 61, C. 211 (1806 — 1807).
04. I. Lento patetico. — Tempo agitato [07:51].
05. II. Tempo vivace e con fuoco, quasi presto [06:25].
Фортепианная соната № 26 As-dur «Возвращение в Париж», или «Plus ultra», op. 64/70/71/77, C. 221 (1807).
06. I. Allegro non troppo ed espressivo [09:09].
07. II. Molto adagio con anima ed espressione [08:27].
08. III. Tempo di minuetto. Scherzo quasi allegro. — Trio. — Minuetto da capo [03:46].
09. IV. Finale. Scherzo. Allegro con spirito [08:35].
Исполнители:
Jan Novotný (фортепиано).
The Prague Philharmonia.
Дирижер Leoš Svárovský.

Лог создания рипа

Exact Audio Copy V1.0 beta 3 from 29. August 2011
EAC extraction logfile from 6. January 2014, 11:26
Jan Novotny / Dussek - Piano Concerto, Piano Sonatas - Jan Novotný
Used drive : TSSTcorpCDDVDW SH-222BB Adapter: 2 ID: 1
Read mode : SecureUtilize accurate stream : YesDefeat audio cache : YesMake use of C2 pointers : No
Read offset correction : 6Overread into Lead-In and Lead-Out : NoFill up missing offset samples with silence : YesDelete leading and trailing silent blocks : NoNull samples used in CRC calculations : YesUsed interface : Native Win32 interface for Win NT & 2000
Used output format : User Defined EncoderSelected bitrate : 1024 kBit/sQuality : HighAdd ID3 tag : NoCommand line compressor : C:\Program Files\Exact Audio Copy\Flac\flac.exeAdditional command line options : -8 -V -T "TITLE=%title%" -T "ARTIST=%artist%" -T "ALBUMARTIST=%albumartist%" -T "ALBUM=%albumtitle%" -T "DATE=%year%" -T "TRACKNUMBER=%tracknr%" -T "TRACKTOTAL=%numtracks%" -T "GENRE=%genre%" -T "COMMENT=%comment%" -T "PERFORMER=%albuminterpret%" -T "COMPOSER=%composer%" %source% -o %dest%
TOC of the extracted CD
Track | Start | Length | Start sector | End sector --------------------------------------------------------- 1 | 0:00.00 | 14:19.64 | 0 | 64488 2 | 14:19.64 | 5:03.38 | 64489 | 87251 3 | 19:23.27 | 8:33.03 | 87252 | 125729 4 | 27:56.30 | 7:54.40 | 125730 | 161319 5 | 35:50.70 | 6:31.10 | 161320 | 190654 6 | 42:22.05 | 9:12.15 | 190655 | 232069 7 | 51:34.20 | 8:30.70 | 232070 | 270389 8 | 60:05.15 | 3:47.55 | 270390 | 287469 9 | 63:52.70 | 8:35.42 | 287470 | 326136
Range status and errors
Selected range
Filename G:\Ripped general\[8225] Dussek – Piano Concerto, Piano Sonatas – Jan Novotný\Dussek - Piano Concerto, Piano Sonatas - Jan Novotný.wav
Peak level 78.7 % Extraction speed 8.0 X Range quality 100.0 % Test CRC 413E552F Copy CRC 413E552F Copy OK
No errors occurred
AccurateRip summary
Track 1 accurately ripped (confidence 1) [02890BA1] (AR v2)Track 2 accurately ripped (confidence 1) [F60AE5C3] (AR v2)Track 3 accurately ripped (confidence 1) [B2AF1BC4] (AR v2)Track 4 accurately ripped (confidence 1) [E44E5CED] (AR v2)Track 5 accurately ripped (confidence 1) [4AAE4761] (AR v2)Track 6 accurately ripped (confidence 1) [2AF178D3] (AR v2)Track 7 accurately ripped (confidence 1) [440998AC] (AR v2)Track 8 accurately ripped (confidence 1) [FB8FDD35] (AR v2)Track 9 accurately ripped (confidence 1) [5C50B66A] (AR v2)
All tracks accurately ripped
End of status report

Содержание индексной карты (.CUE)

REM GENRE ClassicalREM DATE 1999REM DISCID 8110FC09REM COMMENT "ExactAudioCopy v1.0b3"PERFORMER "Jan Novotny & Leos Svarovsky"TITLE "Dussek – Piano Concerto, Piano Sonatas – Jan Novotny"FILE "Dussek – Piano Concerto, Piano Sonatas – Jan Novotny.flac" WAVE TRACK 01 AUDIO TITLE "Piano Concerto in E flat major, Op. 70 (C. 238) - I. Allegro brillante ma non troppo" PERFORMER "Jan Novotny & Leos Svarovsky" INDEX 01 00:00:00 TRACK 02 AUDIO TITLE "Piano Concerto in E flat major, Op. 70 (C. 238) - II. Adagio ma non troppo lento" PERFORMER "Jan Novotny & Leos Svarovsky" INDEX 00 14:16:16 INDEX 01 14:19:64 TRACK 03 AUDIO TITLE "Piano Concerto in E flat major, Op. 70 (C. 238) - III. Rondo. Allegretto moderatissimo" PERFORMER "Jan Novotny & Leos Svarovsky" INDEX 01 19:23:27 TRACK 04 AUDIO TITLE "Piano Sonata No. 24 in F sharp minor ('Elegie harmonique'), Op. 61 (C. 211) - I. Lento patetico - Tempo agitato" PERFORMER "Jan Novotny" INDEX 00 27:49:73 INDEX 01 27:56:30 TRACK 05 AUDIO TITLE "Piano Sonata No. 24 in F sharp minor ('Elegie harmonique'), Op. 61 (C. 211) - II. Tempo vivace e con fuoco, quasi presto" PERFORMER "Jan Novotny" INDEX 00 35:47:05 INDEX 01 35:50:70 TRACK 06 AUDIO TITLE "Piano Sonata No. 26 in A flat major ('La retour a Paris'; 'Plus ultra'), Op. 64 (C. 221) - I. Allegro non troppo ed espressivo" PERFORMER "Jan Novotny" INDEX 00 42:16:70 INDEX 01 42:22:05 TRACK 07 AUDIO TITLE "Piano Sonata No. 26 in A flat major ('La retour a Paris'; 'Plus ultra'), Op. 64 (C. 221) - II. Molto adagio con anima ed espressione" PERFORMER "Jan Novotny" INDEX 00 51:31:18 INDEX 01 51:34:20 TRACK 08 AUDIO TITLE "Piano Sonata No. 26 in A flat major ('La retour a Paris'; 'Plus ultra'), Op. 64 (C. 221) - III. Tempo di minuetto. Scherzo quasi allegro" PERFORMER "Jan Novotny" INDEX 00 60:01:15 INDEX 01 60:05:15 TRACK 09 AUDIO TITLE "Piano Sonata No. 26 in A flat major ('La retour a Paris'; 'Plus ultra'), Op. 64 (C. 221) - IV. Finale. Scherzo. Allegro con spirito" PERFORMER "Jan Novotny" INDEX 00 63:51:47 INDEX 01 63:52:70
[teatrix.ru].t9842.torrent 
Торрент: Зарегистрирован [ 2015-10-25 20:37 ] · EF334E85C7D453A056236107BBB3984C6213AF7A

Скачать .torrent

Скачать

19 KB

Статус: проверено
Скачан: 0 раз
Размер: 234 MB
terms.php



Быстрый ответ

Имя:

      
Для отправки сообщений необходимо включить JavaScript
Показать сообщения:    

Текущее время: 11-Дек 11:07

Часовой пояс: UTC + 3


Вы можете начинать темы
Вы можете отвечать на сообщения
Вы не можете редактировать свои сообщения
Вы не можете удалять свои сообщения
Вы не можете голосовать в опросах
Вы не можете прикреплять файлы к сообщениям
Вы можете скачивать файлы