(Classical) Marcel Landowski - Piano Concerto No. 2; Ondes Martenot Concerto; Trompette Concerto (d'Arco, Orchestre National de l\'ORTF, Martinon; Loriod, Orchestre de Chambre de Musique Contemporaine, Bondon; Andre) - 1978, FLAC (image+.cu


Статистика раздачи [Обновить пиров]
Размер:  287 MB   |    Зарегистрирован:  1 год 1 месяц   |    Скачан:  0 раз

Полного источника не было: Никогда

Личеров:  1  [  0 KB/s  ]   Подробная статистика пиров
 
   
 
 
 

[Цитировать]

Marcel Landowski (1915-1999) - Piano Concerto No. 2 - Ondes Martenot Concerto - Trompette Concerto
Жанр: Classical
Год издания диска: 1978
Издатель (лейбл): Erato
Номер по каталогу:
Дата записи:
Аудиокодек: FLAC
Тип рипа: image+.cue
Битрейт аудио: lossless
Продолжительность: 01:07:30
Источник: скачано из сети
Наличие сканов в содержимом раздачи: да
Треклист:
Concerto No. 2 pour Piano et Orchestre (1963)
01. Moderato (09:46)
02. Calme (09:00)
03. Allegro Vivace (06:00)
Concerto pour Ondes Martenot, Orchestre à cordes et percussions (1954)
04. Andante - Allegro moderato (05:31)
05. Adagio - Allegro (12:38)
Concerto pour trompette, Orchestre et éléments électroacoustiques "Au bout du Chagrin, une fenêtre ouverte" (Paul Eluard) (1976)
06. Cantiques d'un soir (Andantino) (08:09)
07. Chant pour une feuille morte (Allegro moderato) (07:09)
08. Cortège (Andante) (09:17)
Исполнители:
Annie d'Arco - Orchestre National de l'ORTF - Jean Martinon (1-3)
Jeanne Loriod - Orchestre de Chambre de Musique Contemporaine - Jacques Bondon (4-5)
Maurice André - Orchestre Philharmonique de Strasbourg - Alain Lombard (6-8)

LOG EAC

Exact Audio Copy V1.0 beta 3 from 29. August 2011
EAC extraction logfile from 13. January 2012, 0:04
Marcel Landowski (1915-1999) / Piano Concerto No. 2 - Ondes Martenot Concerto - Trompette Concerto
Used drive : TSSTcorpCD/DVDW TS-H552B Adapter: 3 ID: 1
Read mode : SecureUtilize accurate stream : YesDefeat audio cache : NoMake use of C2 pointers : Yes
Read offset correction : 12Overread into Lead-In and Lead-Out : NoFill up missing offset samples with silence : YesDelete leading and trailing silent blocks : NoNull samples used in CRC calculations : YesUsed interface : Native Win32 interface for Win NT & 2000
Used output format : User Defined EncoderSelected bitrate : 896 kBit/sQuality : HighAdd ID3 tag : NoCommand line compressor : C:\Program Files (x86)\Exact Audio Copy\Flac\flac.exeAdditional command line options : -V -0 -T "artist=%artist%" -T "title=%title%" -T "album=%albumtitle%" -T "date=%year%" -T "tracknumber=%tracknr%" -T "genre=%genre%" %source%
TOC of the extracted CD
Track | Start | Length | Start sector | End sector---------------------------------------------------------1 | 0:00.00 | 9:46.45 | 0 | 439942 | 9:46.45 | 9:00.15 | 43995 | 845093 | 18:46.60 | 6:00.55 | 84510 | 1115644 | 24:47.40 | 5:31.10 | 111565 | 1363995 | 30:18.50 | 12:38.02 | 136400 | 1932516 | 42:56.52 | 8:09.63 | 193252 | 2299897 | 51:06.40 | 7:09.27 | 229990 | 2621918 | 58:15.67 | 9:17.13 | 262192 | 303979
Range status and errors
Selected range
Filename F:\Musique\Landowski\Piano_Concerto_2\Piano Concerto No. 2 - Ondes Martenot Concerto - Trompette Concerto.wav
Peak level 100.0 %Extraction speed 10.6 XRange quality 100.0 %Test CRC 82591277Copy CRC 82591277Copy OK
No errors occurred
AccurateRip summary
Track 1 accurately ripped (confidence 1) [76E9B533] (AR v2)Track 2 accurately ripped (confidence 1) [D564BC86] (AR v2)Track 3 accurately ripped (confidence 1) [7035149A] (AR v2)Track 4 accurately ripped (confidence 1) [75C808AA] (AR v2)Track 5 accurately ripped (confidence 1) [72F6A668] (AR v2)Track 6 accurately ripped (confidence 1) [3DEAE24A] (AR v2)Track 7 accurately ripped (confidence 1) [4E95062D] (AR v2)Track 8 accurately ripped (confidence 1) [D0354BEF] (AR v2)
All tracks accurately ripped
End of status report
==== Log checksum C1386212303636AD4C77F0DEC58C028EDE862DB74912FDC79B00E1FCB0787A26 ====
Marcel Landowski - Le Fantome de l'Opera - 1982
Marcel Landowski - Un Enfant Appele, La Prison - 1984
[teatrix.ru].t9843.torrent 
Торрент: Зарегистрирован [ 2015-10-25 20:37 ] · C0965342722287F136CEC5C825BFEAC1EBCC14FA

Скачать .torrent

Скачать

13 KB

Статус: проверено
Скачан: 0 раз
Размер: 287 MB
terms.php



Быстрый ответ

Имя:

      
Для отправки сообщений необходимо включить JavaScript
Показать сообщения:    

Текущее время: 08-Дек 23:09

Часовой пояс: UTC + 3


Вы можете начинать темы
Вы можете отвечать на сообщения
Вы не можете редактировать свои сообщения
Вы не можете удалять свои сообщения
Вы не можете голосовать в опросах
Вы не можете прикреплять файлы к сообщениям
Вы можете скачивать файлы