(Classical) Wolfgang Amadeus Mozart - The Violin Concertos - Simon Standage, The Academy of Ancient Music, Christopher Hogwood - 1997, FLAC (image+.cue) lossless


Статистика раздачи [Обновить пиров]
Размер:  556 MB   |    Зарегистрирован:  1 год 1 месяц   |    Скачан:  0 раз

Полного источника не было: Никогда

Личеров:  1  [  0 KB/s  ]   Подробная статистика пиров
 
   
 
 
 

[Цитировать]

Wolfgang Amadeus Mozart - The Violin Concertos - Simon Standage, The Academy of Ancient Music, Christopher Hogwood
Жанр: Classical
Год издания диска: 1997
Издатель (лейбл): Decca
Дата записи: 1990
Аудиокодек: FLAC
Тип рипа: image+.cue
Битрейт аудио: lossless
Продолжительность: 127:49
Источник: собственный рип
Наличие сканов в содержимом раздачи: да
Треклист:
Wolfgang Amadeus Mozart (1756-1791)
CD1
[1]-[3] Violin Concerto No.1 in B flat major K207
[4]-[6] Violin Concerto No.2 in D major K211
[7]-[9] Violin Concerto No.3 in G major K216
[10] Rondo in B flat major K269 (261a)
CD2
[1]-[3] Violin Concerto No.4 in D major K218
[4]-[6] Violin Concerto No.5 in A major K219
[7] Adagio in E major K261
[8] Rondo in C major K373
Исполнители:
Simon Standage violin
The Academy of Ancient Music
Christopher Hogwood

Лог создания рипа: CD1

Exact Audio Copy V1.0 beta 3 from 29. August 2011
EAC extraction logfile from 28. October 2014, 0:54
Simon Standage, The Academy of Ancient Music, Christopher Hogwood / Mozart - The Violin Concertos - CD1
Used drive : HL-DT-STDVDRAM GU70N Adapter: 0 ID: 0
Read mode : SecureUtilize accurate stream : YesDefeat audio cache : YesMake use of C2 pointers : No
Read offset correction : 48Overread into Lead-In and Lead-Out : NoFill up missing offset samples with silence : YesDelete leading and trailing silent blocks : NoNull samples used in CRC calculations : YesUsed interface : Native Win32 interface for Win NT & 2000
Used output format : User Defined EncoderSelected bitrate : 128 kBit/sQuality : HighAdd ID3 tag : NoCommand line compressor : C:\Program Files (x86)\Exact Audio Copy\Flac\flac.exeAdditional command line options : -V -8 -T "Date=%year%" -T "Genre=%genre%" %source%
TOC of the extracted CD
Track | Start | Length | Start sector | End sector --------------------------------------------------------- 1 | 0:00.33 | 6:56.50 | 33 | 31282 2 | 6:57.08 | 7:37.00 | 31283 | 65557 3 | 14:34.08 | 5:11.50 | 65558 | 88932 4 | 19:45.58 | 8:53.37 | 88933 | 128944 5 | 28:39.20 | 7:14.13 | 128945 | 161507 6 | 35:53.33 | 4:35.37 | 161508 | 182169 7 | 40:28.70 | 8:19.13 | 182170 | 219607 8 | 48:48.08 | 6:51.12 | 219608 | 250444 9 | 55:39.20 | 5:53.50 | 250445 | 276969 10 | 61:32.70 | 6:28.00 | 276970 | 306069
Range status and errors
Selected range
Filename C:\temp\Mozart - The Violin Concertos - Standage, The Academy of Ancient Music, Hogwood\Mozart - The Violin Concertos - CD1.wav
Peak level 87.4 % Extraction speed 2.2 X Range quality 99.9 % Test CRC 0A829440 Copy CRC 0A829440 Copy OK
No errors occurred
AccurateRip summary
Track 1 accurately ripped (confidence 3) [778CD9D7] (AR v2)Track 2 accurately ripped (confidence 3) [93A45540] (AR v2)Track 3 accurately ripped (confidence 3) [1657C623] (AR v2)Track 4 accurately ripped (confidence 3) [658A46EA] (AR v2)Track 5 accurately ripped (confidence 3) [DF33FAC6] (AR v2)Track 6 accurately ripped (confidence 3) [5575E9BB] (AR v2)Track 7 accurately ripped (confidence 3) [B1801F0D] (AR v2)Track 8 accurately ripped (confidence 3) [563197F3] (AR v2)Track 9 accurately ripped (confidence 3) [F576F9F2] (AR v2)Track 10 accurately ripped (confidence 3) [757FC67A] (AR v2)
All tracks accurately ripped
End of status report
==== Log checksum FAEC997C5AD0FC358F4A03EEE608B892D22A9FA49F48AC1EDA159AB12473C835 ====

Лог создания рипа: CD2

Exact Audio Copy V1.0 beta 3 from 29. August 2011
EAC extraction logfile from 28. October 2014, 1:26
Simon Standage, The Academy of Ancient Music, Christopher Hogwood / Mozart - The Violin Concertos - CD2
Used drive : HL-DT-STDVDRAM GU70N Adapter: 0 ID: 0
Read mode : SecureUtilize accurate stream : YesDefeat audio cache : YesMake use of C2 pointers : No
Read offset correction : 48Overread into Lead-In and Lead-Out : NoFill up missing offset samples with silence : YesDelete leading and trailing silent blocks : NoNull samples used in CRC calculations : YesUsed interface : Native Win32 interface for Win NT & 2000
Used output format : User Defined EncoderSelected bitrate : 128 kBit/sQuality : HighAdd ID3 tag : NoCommand line compressor : C:\Program Files (x86)\Exact Audio Copy\Flac\flac.exeAdditional command line options : -V -8 -T "Date=%year%" -T "Genre=%genre%" %source%
TOC of the extracted CD
Track | Start | Length | Start sector | End sector --------------------------------------------------------- 1 | 0:00.33 | 8:26.37 | 33 | 38019 2 | 8:26.70 | 6:04.38 | 38020 | 65357 3 | 14:31.33 | 6:53.00 | 65358 | 96332 4 | 21:24.33 | 9:02.12 | 96333 | 136994 5 | 30:26.45 | 8:48.25 | 136995 | 176619 6 | 39:14.70 | 8:06.50 | 176620 | 213119 7 | 47:21.45 | 6:40.25 | 213120 | 243144 8 | 54:01.70 | 5:46.13 | 243145 | 269107
Range status and errors
Selected range
Filename C:\temp\Mozart - The Violin Concertos - Standage, The Academy of Ancient Music, Hogwood\Mozart - The Violin Concertos - CD2.wav
Peak level 77.1 % Extraction speed 5.1 X Range quality 100.0 % Test CRC 17462D77 Copy CRC 17462D77 Copy OK
No errors occurred
AccurateRip summary
Track 1 cannot be verified as accurate (confidence 12) [D13B0F53], AccurateRip returned [F7C72AE5] (AR v2)Track 2 cannot be verified as accurate (confidence 12) [DE389399], AccurateRip returned [4BE853AF] (AR v2)Track 3 cannot be verified as accurate (confidence 12) [CD5271FC], AccurateRip returned [92A58D60] (AR v2)Track 4 cannot be verified as accurate (confidence 12) [FDF2BCA2], AccurateRip returned [3675461A] (AR v2)Track 5 cannot be verified as accurate (confidence 12) [824F5B22], AccurateRip returned [0D430320] (AR v2)Track 6 cannot be verified as accurate (confidence 12) [A3297C5A], AccurateRip returned [5C439984] (AR v2)Track 7 cannot be verified as accurate (confidence 12) [41C92F80], AccurateRip returned [D661C649] (AR v2)Track 8 cannot be verified as accurate (confidence 12) [8E3FCE69], AccurateRip returned [AC0AFBFA] (AR v2)
No tracks could be verified as accurateYou may have a different pressing from the one(s) in the database
End of status report
==== Log checksum 031B91F9777A42C6EA6EE8BAE43FDA940BBACF046602C0EB881C3E46CBABCE93 ====
[teatrix.ru].t9844.torrent 
Торрент: Зарегистрирован [ 2015-10-25 20:37 ] · 43206C7FAB6F83421B96CBD6E2E090893C69FB46

Скачать .torrent

Скачать

24 KB

Статус: проверено
Скачан: 0 раз
Размер: 556 MB
terms.php



Быстрый ответ

Имя:

      
Для отправки сообщений необходимо включить JavaScript
Показать сообщения:    

Текущее время: 07-Дек 13:39

Часовой пояс: UTC + 3


Вы можете начинать темы
Вы можете отвечать на сообщения
Вы не можете редактировать свои сообщения
Вы не можете удалять свои сообщения
Вы не можете голосовать в опросах
Вы не можете прикреплять файлы к сообщениям
Вы можете скачивать файлы