(Classical) Antonin Dvorak / Антонин Дворжак - Cello Concertos - Steven Isserlis, Mahler Chamber Orchestra, Daniel Harding - 2013, FLAC (image+.cue) lossless


Статистика раздачи [Обновить пиров]
Размер:  356 MB   |    Зарегистрирован:  1 год 1 месяц   |    Скачан:  1 раз

Полного источника не было: 1 месяц

Личеров:  1  [  0 KB/s  ]   Подробная статистика пиров
 
   
 
 
 

[Цитировать]

Antonin Dvorak / Антонин Дворжак - Cello Concertos - Steven Isserlis, Mahler Chamber Orchestra, Daniel Harding
Жанр: Classical
Страна-производитель диска: UK
Год издания диска: 2013
Издатель (лейбл): Hyperion
Номер по каталогу: CDA67917
Дата записи: 2012
Аудиокодек: FLAC
Тип рипа: image+.cue
Битрейт аудио: lossless
Продолжительность: 79:14
Источник: собственный рип
Наличие сканов в содержимом раздачи: да
Треклист:
Antonin Dvorak (1841-1904)
[1]-[3] Cello Concerto in B Minor, Op.104 (1894-5)
[4] Lasst mich allein, Op.82 No.1 (1888)
arranged for orchestra by B. Leopold
[5] Original ending of Cello Concerto in B Minor
[6]-[8] Cello Concerto in A major, B10 (1865)
revised & orchestrated by Günter Raphael
Исполнители:
Steven Isserlis cello
Mahler Chamber Orchestra
Daniel Harding
conductor

Лог создания рипа

Exact Audio Copy V1.0 beta 3 from 29. August 2011
EAC extraction logfile from 6. December 2014, 15:18
Steven Isserlis, Mahler Chamber Orchestra, Daniel Harding / Dvorak - Cello Concertos
Used drive : HL-DT-STDVDRAM GU70N Adapter: 0 ID: 0
Read mode : SecureUtilize accurate stream : YesDefeat audio cache : YesMake use of C2 pointers : No
Read offset correction : 48Overread into Lead-In and Lead-Out : NoFill up missing offset samples with silence : YesDelete leading and trailing silent blocks : NoNull samples used in CRC calculations : YesUsed interface : Native Win32 interface for Win NT & 2000
Used output format : User Defined EncoderSelected bitrate : 128 kBit/sQuality : HighAdd ID3 tag : NoCommand line compressor : C:\Program Files (x86)\Exact Audio Copy\Flac\flac.exeAdditional command line options : -V -8 -T "Date=%year%" -T "Genre=%genre%" %source%
TOC of the extracted CD
Track | Start | Length | Start sector | End sector --------------------------------------------------------- 1 | 0:00.00 | 14:52.10 | 0 | 66909 2 | 14:52.10 | 11:29.18 | 66910 | 118602 3 | 26:21.28 | 13:03.54 | 118603 | 177381 4 | 39:25.07 | 4:22.16 | 177382 | 197047 5 | 43:47.23 | 1:31.63 | 197048 | 203935 6 | 45:19.11 | 16:30.58 | 203936 | 278243 7 | 61:49.69 | 6:55.40 | 278244 | 309408 8 | 68:45.34 | 10:26.50 | 309409 | 356408
Range status and errors
Selected range
Filename C:\temp\CDA67917 - Dvorak - Cello Concertos\Dvorak - Cello Concertos.wav
Peak level 96.3 % Extraction speed 2.3 X Range quality 100.0 % Test CRC D8A264A8 Copy CRC D8A264A8 Copy OK
No errors occurred
AccurateRip summary
Track 1 accurately ripped (confidence 9) [3FE0C8F7] (AR v2)Track 2 accurately ripped (confidence 9) [A00D7344] (AR v2)Track 3 accurately ripped (confidence 9) [2872C3BB] (AR v2)Track 4 accurately ripped (confidence 9) [412EC451] (AR v2)Track 5 accurately ripped (confidence 9) [6D8992DF] (AR v2)Track 6 accurately ripped (confidence 9) [4F752F5A] (AR v2)Track 7 accurately ripped (confidence 9) [9B766A45] (AR v2)Track 8 accurately ripped (confidence 9) [152A59BB] (AR v2)
All tracks accurately ripped
End of status report
==== Log checksum C3FB29A4EA4ABBCC29120C2BF5CE7833D7AB8F4F3E9E346D8BB73EB3794D7FB3 ====
[teatrix.ru].t9846.torrent 
Торрент: Зарегистрирован [ 2015-10-25 20:37 ] · E12924E1087BE33344001509AF408ED780DBF528

Скачать .torrent

Скачать

29 KB

Статус: проверено
Скачан: 1 раз
Размер: 356 MB
terms.php



Быстрый ответ

Имя:

      
Для отправки сообщений необходимо включить JavaScript
Показать сообщения:    

Текущее время: 08-Дек 05:18

Часовой пояс: UTC + 3


Вы можете начинать темы
Вы можете отвечать на сообщения
Вы не можете редактировать свои сообщения
Вы не можете удалять свои сообщения
Вы не можете голосовать в опросах
Вы не можете прикреплять файлы к сообщениям
Вы можете скачивать файлы