(Classical) Бретон и Монастерио – Скрипичные концерты / Breton & Monasterio – Spanish Romantic Violin Concertos (Ara Malikian, Alejandro Posada Gomez) - 2010, FLAC (image+.cue) lossless


Статистика раздачи [Обновить пиров]
Размер:  319 MB   |    Зарегистрирован:  1 год 1 месяц   |    Скачан:  0 раз

Полного источника не было: Никогда

Личеров:  1  [  0 KB/s  ]   Подробная статистика пиров
 
   
 
 
 

[Цитировать]

Бретон и Монастерио – Скрипичные концерты / Bretón & Monasterio – Spanish Romantic Violin Concertos (Ara Malikian, Alejandro Posada Gómez)
Жанр: Classical
Страна-производитель диска: Испания?
Год издания диска: 2010
Издатель (лейбл): Tritó, S.L.
Номер по каталогу: TD0071
Дата записи: январь (4 — 6) и июнь (1 — 3) 2006 г., Вальядолид.
Аудиокодек: FLAC
Тип рипа: image+.cue
Битрейт аудио: lossless
Продолжительность: 01:01:53
Источник: odeonmusic
Наличие сканов в содержимом раздачи: да
Треклист:
Томас Бретон-и-Эрнандес (1850 — 1923).
Скрипичный концерт a-moll (1909; оркестровку реконструировал Рохелио Гроба).
01. I. Allegro [12:56]
02. II. Баллада. Quasi adagio [09:04].
03. III. Allegro non tanto [08:01].
Хесус де Монастерио-и-Агуэрос (1836 — 1903).
Скрипичный концерт h-moll (1859; 2-я редакция 1880).
04. I. Allegro ma non troppo [14:23].
05. II. Adagio cantabile [08:18].
06. III. Полонез. Allegro giusto [07:45].
Исполнители:
Ara Malikian (скрипка).
Orquesta Sinfónica de Castilla y León (OSCyL).
Дирижер Alejandro Posada Gómez.

Лог создания рипа

Exact Audio Copy V1.0 beta 3 from 29. August 2011
EAC extraction logfile from 7. July 2012, 9:48
Ara Malikian / Bretón & Monasterio - Spanish Romantic Violin Concertos - Malikian
Used drive : HL-DT-STDVDRAM GSA-H10A Adapter: 0 ID: 0
Read mode : SecureUtilize accurate stream : YesDefeat audio cache : YesMake use of C2 pointers : No
Read offset correction : 667Overread into Lead-In and Lead-Out : NoFill up missing offset samples with silence : YesDelete leading and trailing silent blocks : NoNull samples used in CRC calculations : YesUsed interface : Native Win32 interface for Win NT & 2000
Used output format : User Defined EncoderSelected bitrate : 1024 kBit/sQuality : HighAdd ID3 tag : NoCommand line compressor : C:\Program Files\Exact Audio Copy\Flac\flac.exeAdditional command line options : -8 -V -T "TITLE=%title%" -T "ARTIST=%artist%" -T "ALBUMARTIST=%albumartist%" -T "ALBUM=%albumtitle%" -T "DATE=%year%" -T "TRACKNUMBER=%tracknr%" -T "TRACKTOTAL=%numtracks%" -T "GENRE=%genre%" -T "COMMENT=%comment%" -T "PERFORMER=%albuminterpret%" -T "COMPOSER=%composer%" %source% -o %dest%
TOC of the extracted CD
Track | Start | Length | Start sector | End sector --------------------------------------------------------- 1 | 0:00.00 | 12:56.65 | 0 | 58264 2 | 12:56.65 | 9:04.72 | 58265 | 99136 3 | 22:01.62 | 8:01.33 | 99137 | 135244 4 | 30:03.20 | 14:23.57 | 135245 | 200026 5 | 44:27.02 | 8:18.15 | 200027 | 237391 6 | 52:45.17 | 7:45.30 | 237392 | 272296
Range status and errors
Selected range
Filename F:\Ripped general\[9739] Bretón & Monasterio - Spanish Romantic Violin Concertos - Malikian\Bretón & Monasterio - Spanish Romantic Violin Concertos - Malikian.wav
Peak level 98.8 % Extraction speed 7.7 X Range quality 100.0 % Test CRC 387C1ADA Copy CRC 387C1ADA Copy OK
No errors occurred
AccurateRip summary
Track 1 not present in databaseTrack 2 not present in databaseTrack 3 not present in databaseTrack 4 not present in databaseTrack 5 not present in databaseTrack 6 not present in database
None of the tracks are present in the AccurateRip database
End of status report

Содержание индексной карты (.CUE)

REM GENRE ClassicalREM DISCID 570E2E06REM COMMENT "ExactAudioCopy v1.0b3"PERFORMER "Ara Malikian & Alejandro Posada"TITLE "Breton & Monasterio – Spanish Romantic Violin Concertos – Malikian"FILE "Breton & Monasterio – Spanish Romantic Violin Concertos – Malikian.flac" WAVE TRACK 01 AUDIO TITLE "Breton - Violin Concerto in A minor (orch. Groba) - I. Allegro" PERFORMER "Ara Malikian & Alejandro Posada" FLAGS DCP INDEX 01 00:00:00 TRACK 02 AUDIO TITLE "Breton - Violin Concerto in A minor (orch. Groba) - II. Balada. Quasi adagio" PERFORMER "Ara Malikian & Alejandro Posada" FLAGS DCP INDEX 01 12:56:65 TRACK 03 AUDIO TITLE "Breton - Violin Concerto in A minor (orch. Groba) - III. Allegro non tanto" PERFORMER "Ara Malikian & Alejandro Posada" FLAGS DCP INDEX 01 22:01:62 TRACK 04 AUDIO TITLE "Monasterio - Violin Concerto in B minor (2nd version) - I. Allegro ma non troppo" PERFORMER "Ara Malikian & Alejandro Posada" FLAGS DCP INDEX 01 30:03:20 TRACK 05 AUDIO TITLE "Monasterio - Violin Concerto in B minor (2nd version) - II. Adagio cantabile" PERFORMER "Ara Malikian & Alejandro Posada" FLAGS DCP INDEX 01 44:27:02 TRACK 06 AUDIO TITLE "Monasterio - Violin Concerto in B minor (2nd version) - III. Polaca. Allegro giusto" PERFORMER "Ara Malikian & Alejandro Posada" FLAGS DCP INDEX 01 52:45:17
[teatrix.ru].t9847.torrent 
Торрент: Зарегистрирован [ 2015-10-25 20:37 ] · DEB8395D2C1B194443A9BB37B2ED1BE1458D9EFA

Скачать .torrent

Скачать

14 KB

Статус: проверено
Скачан: 0 раз
Размер: 319 MB
terms.php



Быстрый ответ

Имя:

      
Для отправки сообщений необходимо включить JavaScript
Показать сообщения:    

Текущее время: 10-Дек 00:23

Часовой пояс: UTC + 3


Вы можете начинать темы
Вы можете отвечать на сообщения
Вы не можете редактировать свои сообщения
Вы не можете удалять свои сообщения
Вы не можете голосовать в опросах
Вы не можете прикреплять файлы к сообщениям
Вы можете скачивать файлы