(Classical) Johann Nepomuk Hummel - Piano Concertos, Volume 1 - Alessandro Commellato, Solamente Naturali, Didier Talpain - 2012, FLAC (image+.cue) lossless


Статистика раздачи [Обновить пиров]
Размер:  287 MB   |    Зарегистрирован:  1 год 1 месяц   |    Скачан:  0 раз

Полного источника не было: Никогда

Личеров:  1  [  0 KB/s  ]   Подробная статистика пиров
 
   
 
 
 

[Цитировать]

Johann Nepomuk Hummel - Piano Concertos, Volume 1 - Alessandro Commellato, Solamente Naturali, Didier Talpain
Жанр: Classical
Год издания диска: 2012
Издатель (лейбл): Brilliant Classics
Номер по каталогу: 94338
Дата записи: 2009, 2010
Аудиокодек: FLAC
Тип рипа: image+.cue
Битрейт аудио: lossless
Продолжительность: 63:14
Источник: собственный рип
Наличие сканов в содержимом раздачи: да
Треклист:
Johann Nepomuk Hummel (1778-1837)
[1]-[3] Piano Concerto in A minor, Op.85
[4]-[6] Piano Concertino in G major, Op.73
[7]-[8] Introduction & Rondo brillant in F minor, Op.127
Исполнители:
Alessandro Commellato fortepiano
Solamente Naturali
Didier Talpain

Лог создания рипа

Exact Audio Copy V1.0 beta 3 from 29. August 2011
EAC extraction logfile from 5. December 2014, 0:24
Alessandro Commellato, Solamente Naturali, Didier Talpain / Hummel - Piano Concertos, Vol.1
Used drive : HL-DT-STDVDRAM GU70N Adapter: 0 ID: 0
Read mode : SecureUtilize accurate stream : YesDefeat audio cache : YesMake use of C2 pointers : No
Read offset correction : 48Overread into Lead-In and Lead-Out : NoFill up missing offset samples with silence : YesDelete leading and trailing silent blocks : NoNull samples used in CRC calculations : YesUsed interface : Native Win32 interface for Win NT & 2000
Used output format : User Defined EncoderSelected bitrate : 128 kBit/sQuality : HighAdd ID3 tag : NoCommand line compressor : C:\Program Files (x86)\Exact Audio Copy\Flac\flac.exeAdditional command line options : -V -8 -T "Date=%year%" -T "Genre=%genre%" %source%
TOC of the extracted CD
Track | Start | Length | Start sector | End sector --------------------------------------------------------- 1 | 0:00.00 | 16:19.11 | 0 | 73435 2 | 16:19.11 | 4:28.11 | 73436 | 93546 3 | 20:47.22 | 11:04.13 | 93547 | 143359 4 | 31:51.35 | 8:19.68 | 143360 | 180852 5 | 40:11.28 | 3:40.33 | 180853 | 197385 6 | 43:51.61 | 4:21.73 | 197386 | 217033 7 | 48:13.59 | 3:40.72 | 217034 | 233605 8 | 51:54.56 | 11:20.01 | 233606 | 284606
Range status and errors
Selected range
Filename C:\temp\Hummel - Piano Concertos, Vol.1 - Commellato\Hummel - Piano Concertos, Vol.1.wav
Peak level 100.0 % Extraction speed 5.0 X Range quality 99.9 % Test CRC EE04B7D2 Copy CRC EE04B7D2 Copy OK
No errors occurred
AccurateRip summary
Track 1 accurately ripped (confidence 3) [62B413E6] (AR v2)Track 2 accurately ripped (confidence 3) [43CDAAFC] (AR v2)Track 3 accurately ripped (confidence 3) [2D896D18] (AR v2)Track 4 accurately ripped (confidence 3) [6909B5DA] (AR v2)Track 5 accurately ripped (confidence 3) [D52AA711] (AR v2)Track 6 accurately ripped (confidence 3) [048072FB] (AR v2)Track 7 accurately ripped (confidence 3) [8B1824FC] (AR v2)Track 8 accurately ripped (confidence 3) [DE6825E6] (AR v2)
All tracks accurately ripped
End of status report
==== Log checksum F9949AFBDB68FC4D92E3ACF6F5F357F474A63C380ED71452AFA7D581C87936C7 ====
[teatrix.ru].t9848.torrent 
Торрент: Зарегистрирован [ 2015-10-25 20:37 ] · AE1521A76E07370301163E6AEE048E186FE2F015

Скачать .torrent

Скачать

24 KB

Статус: проверено
Скачан: 0 раз
Размер: 287 MB
terms.php



Быстрый ответ

Имя:

      
Для отправки сообщений необходимо включить JavaScript
Показать сообщения:    

Текущее время: 11-Дек 14:57

Часовой пояс: UTC + 3


Вы можете начинать темы
Вы можете отвечать на сообщения
Вы не можете редактировать свои сообщения
Вы не можете удалять свои сообщения
Вы не можете голосовать в опросах
Вы не можете прикреплять файлы к сообщениям
Вы можете скачивать файлы