(Classical) Antonio Vivaldi (Антонио Вивальди) - The four seasons / Concerto Grosso In C / Violin Concerto NO. 5 (Bernard Lanner) - n/a, FLAC (image+.cue) lossless


Статистика раздачи [Обновить пиров]
Размер:  312 MB   |    Зарегистрирован:  1 год 2 месяца   |    Скачан:  0 раз

Полного источника не было: Никогда

Личеров:  1  [  0 KB/s  ]   Подробная статистика пиров
 
   
 
 
 

[Цитировать]

Antonio Vivaldi - The four seasons / Concerto Grosso In C / Violin Concerto NO. 5
Жанр: Classical
Страна-производитель диска: EEC
Год издания диска: n/a
Издатель (лейбл): Arena classics
Номер по каталогу: 3400 CD
Дата записи: n/a
Аудиокодек: FLAC
Тип рипа: image+.cue
Битрейт аудио: lossless
Продолжительность: 60:34
Источник: собственный рип
Наличие сканов в содержимом раздачи: нет
Треклист:
The Four Seasons
Concerto in E major, Op.8 No.1, RV 269 "Spring"
01. Allegro
02. Largo
03. Allegro
Concerto in G minor, Op.8 No.2, RV 315 "Summer"
04. Allegro
05. Adagio
06. Presto
Concerto in F major, Op.8 No.3, RV 293 "Autumn"
07. Allegro
08. Adagio molto
09. Allegro
Concerto in F minor, Op.8 No.4, RV 297 "Winter"
10. Allegro Non Molto
11. Largo
12. Allegro
Concerto Grosso In C R.V. 558
13. Allegro Molto
14. Andante Molto
15. Allegro
Violin Concerto NO. 5 In E Flat R.V. 253
16. (Allegro e) Presto
17. Largo
18. Presto
Исполнители:
Bernard Lanner / The London Chamber Orchestra

Лог создания рипа

Exact Audio Copy V1.0 beta 3 from 29. August 2011
Отчёт EAC об извлечении, выполненном 3. декабря 2014, 21:33
The London Chamber Orchestra / Vivaldi - The Four Seasons
Дисковод: PIONEER DVD-RW DVR-212D Adapter: 2 ID: 1
Режим чтения : ДостоверностьИспользование точного потока : ДаОтключение кэша аудио : ДаИспользование указателей C2 : Нет
Коррекция смещения при чтении : 48Способность читать области Lead-in и Lead-out : НетЗаполнение пропущенных сэмплов тишиной : ДаУдаление блоков с тишиной в начале и конце : НетПри вычислениях CRC использовались нулевые сэмплы : ДаИнтерфейс : Встроенный Win32-интерфейс для Win NT/2000
Выходной формат : Пользовательский кодировщикВыбранный битрейт : 128 kBit/sКачество : ВысокийДобавление ID3-тега : НетУтилита сжатия : C:\Program Files\FLAC\flac.exeДополнительные параметры : -V -8 -T "Date=%year%" -T "Genre=%genre%" %source%
TOC извлечённого CD
Трек | Старт | Длительность | Начальный сектор | Конечный сектор --------------------------------------------------------------------- 1 | 0:00.00 | 3:28.50 | 0 | 15649 2 | 3:28.50 | 2:27.40 | 15650 | 26714 3 | 5:56.15 | 4:11.17 | 26715 | 45556 4 | 10:07.32 | 5:15.58 | 45557 | 69239 5 | 15:23.15 | 2:27.25 | 69240 | 80289 6 | 17:50.40 | 3:05.72 | 80290 | 94236 7 | 20:56.37 | 5:14.38 | 94237 | 117824 8 | 26:11.00 | 2:55.42 | 117825 | 130991 9 | 29:06.42 | 3:22.00 | 130992 | 146141 10 | 32:28.42 | 3:20.48 | 146142 | 161189 11 | 35:49.15 | 2:12.25 | 161190 | 171114 12 | 38:01.40 | 3:16.72 | 171115 | 185886 13 | 41:18.37 | 6:12.38 | 185887 | 213824 14 | 47:31.00 | 2:17.00 | 213825 | 224099 15 | 49:48.00 | 3:42.10 | 224100 | 240759 16 | 53:30.10 | 2:51.37 | 240760 | 253621 17 | 56:21.47 | 2:27.35 | 253622 | 264681 18 | 58:49.07 | 3:34.70 | 264682 | 280801
Характеристики диапазона извлечения и сообщения об ошибках
Выбранный диапазон
Имя файла K:\M_U_S_I_C\The London Chamber Orchestra - Vivaldi - The Four Seasons.wav
Пиковый уровень 99.6 % Скорость извлечения 8.0 X Качество диапазона 100.0 % CRC теста 60F34AD6 CRC копии 60F34AD6 Копирование... OK
Ошибок не произошло
AccurateRip: сводка
Трек 1 : извлечено точно (доверие 2) [473CBA81] (AR v2)Трек 2 : извлечено точно (доверие 2) [F579491D] (AR v2)Трек 3 : извлечено точно (доверие 2) [DB7EE577] (AR v2)Трек 4 : извлечено точно (доверие 2) [803022AC] (AR v2)Трек 5 : извлечено точно (доверие 2) [B90AA8DC] (AR v2)Трек 6 : извлечено точно (доверие 2) [DA87772B] (AR v2)Трек 7 : извлечено точно (доверие 2) [0BF810D8] (AR v2)Трек 8 : извлечено точно (доверие 2) [68B4960F] (AR v2)Трек 9 : извлечено точно (доверие 2) [396A7E40] (AR v2)Трек 10 : извлечено точно (доверие 3) [29519082] (AR v1)Трек 11 : извлечено точно (доверие 2) [9F5DE421] (AR v2)Трек 12 : извлечено точно (доверие 2) [43208561] (AR v2)Трек 13 : извлечено точно (доверие 2) [B5766439] (AR v2)Трек 14 : извлечено точно (доверие 2) [556C4687] (AR v2)Трек 15 : извлечено точно (доверие 2) [08ABCEA9] (AR v2)Трек 16 : извлечено точно (доверие 2) [FE2B49AC] (AR v2)Трек 17 : извлечено точно (доверие 2) [FF5CB09B] (AR v2)Трек 18 : извлечено точно (доверие 2) [9A2A3AE4] (AR v2)
Все треки извлечены точно
Конец отчёта
Доп. информация: Диск впервые попал в руки в 1993 году. Дату записи найти не удалось.
[teatrix.ru].t9849.torrent 
Торрент: Зарегистрирован [ 2015-10-25 20:37 ] · 94B2C7FE4CCEAA9B27A57D8CBF6210BC0439A038

Скачать .torrent

Скачать

13 KB

Статус: проверено
Скачан: 0 раз
Размер: 312 MB
terms.php



Быстрый ответ

Имя:

      
Для отправки сообщений необходимо включить JavaScript
Показать сообщения:    

Текущее время: 18-Янв 00:24

Часовой пояс: UTC + 3


Вы можете начинать темы
Вы можете отвечать на сообщения
Вы не можете редактировать свои сообщения
Вы не можете удалять свои сообщения
Вы не можете голосовать в опросах
Вы не можете прикреплять файлы к сообщениям
Вы можете скачивать файлы