(Violin concerts/Sonata) Antonio Vivaldi (Антонио Вивальди)- Concertos And Sonatas (I Solisti Di Milano, Angelo Ephrikian) 9 CD set - 2012, APE (image+.cue) lossless


Статистика раздачи [Обновить пиров]
Размер:  2.05 GB   |    Зарегистрирован:  1 год 2 месяца   |    Скачан:  0 раз

Полного источника не было: Никогда

Личеров:  1  [  0 KB/s  ]   Подробная статистика пиров
 
   
 
 
 

[Цитировать]

Antonio Vivaldi - Concertos And Sonatas (I Solisti Di Milano, Angelo Ephrikian) Жанр: Violin concerts/Sonata
Страна-производитель диска: Netherlands
Год издания диска: 2012
Издатель (лейбл): Newton Classics (Arcophon/Rivoalto)
Номер по каталогу: 8802109
Дата записи: 1964-1972
Аудиокодек: APE
Тип рипа: image+.cue
Битрейт аудио: lossless
Количество дисков: 9
Продолжительность: 7 hours 30 minutes
Источник: собственный рип
Наличие сканов в содержимом раздачи: да

Треклист с исполнителями:CD1 - Trio Sonatas, Op.1 Nos.1-6 (39:24):

01. Sonata No.1 in G minor, RV 73 [00:06:19]
02. Sonata No.2 in E minor, RV 67 [00:05:52]
03. Sonata No.3 in C, RV 61 [00:07:43]
04. Sonata No.4 in E, RV 66 [00:06:46]
05. Sonata No.5 in F, RV 69 [00:05:49]
06. Sonata No.6 in D, RV 62 [00:06:52]
Mario Ferraris, Ermanno Molinaro violin
Antonio Pocaterra cello
Mariella Sorelli harpsichord/organ

CD2 - Trio Sonatas, Op.1 Nos.7-12 (47:03):

01. Sonata No.7 in E flat, RV 65 [00:07:00]
02. Sonata No.8 in D minor, RV 64 [00:08:06]
03. Sonata No.9 in A, RV 75 [00:05:33]
04. Sonata No.10 in B flat, RV 78 [00:06:03]
05. Sonata No.11 in B minor, RV 79 [00:06:50]
06. Sonata No.12 in D minor, RV 63 [00:13:27]
Mario Ferraris, Ermanno Molinaro violin
Antonio Pocaterra cello
Mariella Sorelli harpsichord/organ

CD3 - Concertos Op.4 'La Stravaganza', Nos.1-6 (63:27):

Concerto No.1 in B flat, RV 383a
01. I. Allegro [00:03:34]
02. II. Largo [00:03:31]
03. III. Allegro [00:02:58]
Concerto No.2 in E minor, RV 279
04. I. Allegro [00:04:54]
05. II. Largo [00:02:59]
06. III. Allegro [00:03:49]
Concerto No.3 in G, RV 301
07. I. Allegro [00:03:25]
08. II. Largo [00:03:30]
09. III. Allegro [00:02:20]
Concerto No.4 in A minor, RV 357
10. I. Allegro [00:03:14]
11. II. Grave [00:03:37]
12. III. Allegro [00:03:23]
Concerto No.5 in A, RV 347
13. I. Allegro [00:03:41]
14. II. Largo [00:02:58]
15. III. Allegro [00:03:38]
Concerto No.6 in G minor, RV 316a
16. I. Allegro [00:03:12]
17. II. Largo [00:03:59]
18. III. Allegro [00:04:37]
Franco Fantini (Concertos Nos.1-3), Tino Bacchetta (Concertos Nos.4-6) violin
I Solisti di Milano / Angelo Ephrikian director

CD4 - Concertos Op.4 'La Stravaganza', Nos.7-12 (55:12):

Concerto No.7 in C, RV 185
01. I. Largo [00:02:13]
02. II. Allegro (molto) [00:02:15]
03. III. Largo [00:01:42]
04. IV. Allegro [00:02:22]
Concerto No.8 in D minor, RV 249
05. I. Allegro [00:02:04]
06. II. Adagio [00:00:15]
07. III. Presto [00:00:45]
08. IV. Adagio [00:02:05]
09. V. Allegro [00:04:05]
Concerto No.9 in F, RV 284
10. I. Allegro [00:03:09]
11. II. Adagio [00:02:40]
12. III. Allegro [00:02:31]
Concerto No.10 in C minor, RV 196
13. I. Spiritoso [00:03:01]
14. II. Adagio [00:03:05]
15. III. Allegro [00:03:11]
Concerto No.11 in D, RV 204
16. I. Allegro [00:02:54]
17. II. Largo [00:03:07]
18. III. Allegro assai [00:01:58]
Concerto No.12 in G, RV 298
19. I. Spiritoso e non presto [00:03:07]
20. II. Largo [00:04:11]
21. III. Allegro [00:04:23]
Franco Fantini (Concertos Nos.7-9), Tino Bacchetta (Concertos Nos.10-12) violin
I Solisti di Milano / Angelo Ephrikian director

CD5 - Sonatas for violin and continuo, Op.5 (34:48):

Sonata in F, RV 18
01. Prelude - Corrente - Sarabanda - Giga [00:05:49]
Sonata in A, RV 30
02. Prelude - Corrente - Gavotta [00:04:43]
Sonata in B flat, RV 33
03. Prelude - Allemande - Corrente - Gavotta [00:06:03]
Sonata in B minor, RV 35
04. Prelude - Allemanda - Corrente [00:06:30]
Sonata in B flat, RV 76
05. Prelude - Allemanda - Corrente [00:06:38]
Sonata in G minor, RV 72
06. Prelude - Allemanda - Air - Menuet [00:05:01]
Franco Fantini, Mario Ferraris, Angelo Ephrikian violin
Genunzio Ghetti, Antonio Pocaterra cello
Vera Luccini, Maria Isabella de Carli harpsichord
Angelo Ephrikian revision and direction

CD6 - Six Concertos, Op.6 (52:57):

Concerto No.1 in G minor, RV 324
01. I. Allegro [00:03:28]
02. II. Grave [00:04:34]
03. III. Allegro [00:02:41]
Concerto No.2 in E flat, RV 259
04. I. Allegro [00:03:53]
05. II. Largo [00:02:06]
06. III. Allegro [00:03:27]
Concerto No.3 in G minor, RV 318
07. I. Allegro [00:03:20]
08. II. Adagio [00:02:32]
09. III. Allegro [00:02:42]
Concerto No.4 in D, RV 216
10. I. Allegro [00:02:04]
11. II. Adagio [00:01:31]
12. III. Allegro [00:02:24]
Concerto No.5 in E minor, RV 280
13. I. Allegro [00:03:05]
14. II. Largo [00:03:03]
15. III. Allegro [00:02:14]
Concerto No.6 in D minor, RV 239
16. I. Allegro [00:03:35]
17. II. Largo [00:02:44]
18. III. Allegro [00:03:27]
Franco Fantini, Mario Ferraris violin
Antonio Pocaterra cello
Maria Isabella de Carli organ/harpsichord
I Solisti Di Milano / Angelo Ephrikian director

CD7 - The Four Seasons, Op.8 (42:28):

Concerto No.1 in E 'Spring', RV 269
01. I. Allegro [00:03:13]
02. II. Largo [00:02:48]
03. III. Allegro pastorale [00:04:34]
Concerto No.2 in G minor 'Summer', RV 315
04. I. Allegro non molto [00:05:56]
05. II. Adagio e piano [00:02:29]
06. III. Presto e forte [00:02:59]
Concerto No.3 in F 'Autumn', RV 293
07. I. Allegro [00:05:16]
08. II. Adagio molto [00:02:56]
09. III. Allegro [00:03:34]
Concerto No.4 in F minor 'Winter', RV 297
10. I. Allegro non molto [00:03:26]
11. II. Largo [00:02:04]
12. III. Allegro [00:03:07]
Franco Fantini violin
I Solisti Di Milano / Angelo Ephrikian director

CD8 - Six Violin Concertos, Op.12 (61:46):

Concerto No.1 in G minor, RV 317
01. I. Allegro [00:04:29]
02. II. Largo [00:04:32]
03. III. Allegro [00:03:27]
Concerto No.3 in D, RV 124
04. I. Allegro [00:02:30]
05. II. Grave [00:01:59]
06. III. Allegro [00:02:06]
Concerto No.5 in B flat, RV 379
07. I. Allegro [00:03:37]
08. II. Largo [00:03:22]
09. III. Allegro [00:03:57]
Concerto No.2 in D minor, RV 244
10. I. Allegro [00:03:45]
11. II. Larghetto [00:02:56]
12. III. Allegro [00:02:38]
Concerto No.4 in C, RV 173
13. I. Largo e spiccato [00:00:40]
14. II. Allegro [00:03:55]
15. III. Largo [00:02:30]
16. IV. Allegro [00:03:04]
Concerto No.6 in B flat, RV 361
17. I. Allegro [00:04:43]
18. II. Largo [00:02:57]
19. III. Allegro [00:04:30]
Franco Fantini violin
I Solisti Di Milano / Angelo Ephrikian director

CD9 - Six Sonatas for cello and basso continuo (57:58):

Sonata No.1 in B flat, RV 47
01. Largo - Allegro - Largo - Allegro [00:09:43]
Sonata No.2 in F, RV 41
02. Largo - Allegro - Largo - Allegro [00:08:08]
Sonata No.3 in A minor, RV 43
03. Largo - Allegro - Largo - Allegro [00:10:26]
Sonata No.4 in B flat, RV 45
04. Largo - Allegro - Largo - Allegro [00:10:17]
Sonata No.5 in E minor, RV 40
05. Largo - Allegro - Largo - Allegro [00:09:33]
Sonata No.6 in B flat, RV 46
06. Largo - Allegro - Largo - Allegro [00:09:48]
Paul Tortelier cello, Robert Veyron-Lacroix harpsichord

Отчёт EACDisc 1 - Trio Sonatas, Op.1 Nos.1-6 (39:24)

Exact Audio Copy V1.0 beta 3 from 29. August 2011
EAC extraction logfile from 3. August 2014, 22:04
Antonio Vivaldi / Suonate da Camera a tre- Op.1 (1-6)
Used drive : PIONEER DVD-RW DVRTD11RS Adapter: 1 ID: 0
Read mode : SecureUtilize accurate stream : YesDefeat audio cache : YesMake use of C2 pointers : No
Read offset correction : 6Overread into Lead-In and Lead-Out : NoFill up missing offset samples with silence : YesDelete leading and trailing silent blocks : NoNull samples used in CRC calculations : YesUsed interface : Native Win32 interface for Win NT & 2000
Used output format : User Defined EncoderSelected bitrate : 128 kBit/sQuality : HighAdd ID3 tag : NoCommand line compressor : C:\Program Files\Monkey's Audio\MAC.exeAdditional command line options : %source% %dest% -c3000
TOC of the extracted CD
Track | Start | Length | Start sector | End sector --------------------------------------------------------- 1 | 0:00.33 | 6:19.70 | 33 | 28527 2 | 6:20.28 | 5:52.50 | 28528 | 54977 3 | 12:13.03 | 7:43.12 | 54978 | 89714 4 | 19:56.15 | 6:46.65 | 89715 | 120229 5 | 26:43.05 | 5:49.55 | 120230 | 146459 6 | 32:32.60 | 6:52.00 | 146460 | 177359
Range status and errors
Selected range
Filename C:\Documents and Settings\Администратор\Мои документы\CDImage.wav
Peak level 84.1 % Extraction speed 1.8 X Range quality 99.9 % Test CRC 9C915719 Copy CRC 9C915719 Copy OK
No errors occurred
AccurateRip summary
Track 1 accurately ripped (confidence 2) [D25B86E6] (AR v2)Track 2 accurately ripped (confidence 2) [AFBBA986] (AR v2)Track 3 accurately ripped (confidence 2) [80B2C8A5] (AR v2)Track 4 accurately ripped (confidence 2) [B03AA705] (AR v2)Track 5 accurately ripped (confidence 2) [B558B14B] (AR v2)Track 6 accurately ripped (confidence 2) [B87DA9F5] (AR v2)
All tracks accurately ripped
End of status report
---- CUETools DB Plugin V2.1.3
[CTDB TOCID: qSe9V8AjQt2niaaUkIj2XWrzvho-] disk not present in database, Submit result: discs with pregaps not supported in this protocol version
==== Log checksum D16B647F120F03245D4AE665F43BD5E9ABB03253B4509186E672C6788A65F47D ====

Disc 2 - Trio Sonatas, Op.1 Nos.7-12 (47:03)

Exact Audio Copy V1.0 beta 3 from 29. August 2011
EAC extraction logfile from 9. August 2014, 11:44
Antonio Vivaldi / Suonate da Camera a tre- Op.1 (7-12)
Used drive : PIONEER DVD-RW DVRTD11RS Adapter: 1 ID: 0
Read mode : SecureUtilize accurate stream : YesDefeat audio cache : YesMake use of C2 pointers : No
Read offset correction : 6Overread into Lead-In and Lead-Out : NoFill up missing offset samples with silence : YesDelete leading and trailing silent blocks : NoNull samples used in CRC calculations : YesUsed interface : Native Win32 interface for Win NT & 2000
Used output format : User Defined EncoderSelected bitrate : 128 kBit/sQuality : HighAdd ID3 tag : NoCommand line compressor : C:\Program Files\Monkey's Audio\MAC.exeAdditional command line options : %source% %dest% -c3000
TOC of the extracted CD
Track | Start | Length | Start sector | End sector --------------------------------------------------------- 1 | 0:00.33 | 7:00.45 | 33 | 31577 2 | 7:01.03 | 8:06.37 | 31578 | 68064 3 | 15:07.40 | 5:33.53 | 68065 | 93092 4 | 20:41.18 | 6:03.62 | 93093 | 120379 5 | 26:45.05 | 6:50.50 | 120380 | 151179 6 | 33:35.55 | 13:27.40 | 151180 | 211744
Range status and errors
Selected range
Filename C:\Documents and Settings\Администратор\Мои документы\CDImage.wav
Peak level 79.8 % Extraction speed 2.2 X Range quality 100.0 % Test CRC B9C8E787 Copy CRC B9C8E787 Copy OK
No errors occurred
AccurateRip summary
Track 1 accurately ripped (confidence 2) [DE3F1C9F] (AR v2)Track 2 accurately ripped (confidence 2) [05F7AC93] (AR v2)Track 3 accurately ripped (confidence 2) [F866D24A] (AR v2)Track 4 accurately ripped (confidence 2) [6E122912] (AR v2)Track 5 accurately ripped (confidence 2) [067FD648] (AR v2)Track 6 accurately ripped (confidence 2) [D60F4388] (AR v2)
All tracks accurately ripped
End of status report
---- CUETools DB Plugin V2.1.3
[CTDB TOCID: bfolsGhuP8rSBw29hGqnvrlKyog-] disk not present in database, Submit result: discs with pregaps not supported in this protocol version
==== Log checksum 96369EE8D1E8BD90A2DF3D31C6514994756C3BBB60B62EFA1A662A8BBCC2B3F8 ====

Disc 3 - Concertos Op.4 'La Stravaganza', Nos.1-6 (63:27)

Exact Audio Copy V1.0 beta 3 from 29. August 2011
EAC extraction logfile from 9. August 2014, 13:45
Unknown Artist / Unknown Title
Used drive : PIONEER DVD-RW DVRTD11RS Adapter: 1 ID: 0
Read mode : SecureUtilize accurate stream : YesDefeat audio cache : YesMake use of C2 pointers : No
Read offset correction : 6Overread into Lead-In and Lead-Out : NoFill up missing offset samples with silence : YesDelete leading and trailing silent blocks : NoNull samples used in CRC calculations : YesUsed interface : Native Win32 interface for Win NT & 2000
Used output format : User Defined EncoderSelected bitrate : 128 kBit/sQuality : HighAdd ID3 tag : NoCommand line compressor : C:\Program Files\Monkey's Audio\MAC.exeAdditional command line options : %source% %dest% -c3000
TOC of the extracted CD
Track | Start | Length | Start sector | End sector --------------------------------------------------------- 1 | 0:00.00 | 3:34.58 | 0 | 16107 2 | 3:34.58 | 3:31.53 | 16108 | 31985 3 | 7:06.36 | 2:58.52 | 31986 | 45387 4 | 10:05.13 | 4:54.14 | 45388 | 67451 5 | 14:59.27 | 2:59.01 | 67452 | 80877 6 | 17:58.28 | 3:49.23 | 80878 | 98075 7 | 21:47.51 | 3:25.47 | 98076 | 113497 8 | 25:13.23 | 3:30.41 | 113498 | 129288 9 | 28:43.64 | 2:20.04 | 129289 | 139792 10 | 31:03.68 | 3:14.01 | 139793 | 154343 11 | 34:17.69 | 3:37.35 | 154344 | 170653 12 | 37:55.29 | 3:23.71 | 170654 | 185949 13 | 41:19.25 | 3:41.27 | 185950 | 202551 14 | 45:00.52 | 2:58.38 | 202552 | 215939 15 | 47:59.15 | 3:38.19 | 215940 | 232308 16 | 51:37.34 | 3:12.12 | 232309 | 246720 17 | 54:49.46 | 3:59.60 | 246721 | 264705 18 | 58:49.31 | 4:37.54 | 264706 | 285534
Range status and errors
Selected range
Filename C:\Documents and Settings\Администратор\Мои документы\CDImage.wav
Peak level 99.9 % Extraction speed 2.4 X Range quality 100.0 % Test CRC CAA04A29 Copy CRC CAA04A29 Copy OK
No errors occurred
AccurateRip summary
Track 1 accurately ripped (confidence 2) [60CAD640] (AR v2)Track 2 accurately ripped (confidence 2) [3B4E9D32] (AR v2)Track 3 accurately ripped (confidence 2) [CE3053E3] (AR v2)Track 4 accurately ripped (confidence 2) [99B03EDE] (AR v2)Track 5 accurately ripped (confidence 2) [E253FDE9] (AR v2)Track 6 accurately ripped (confidence 2) [094E1310] (AR v2)Track 7 accurately ripped (confidence 2) [653831A5] (AR v2)Track 8 accurately ripped (confidence 2) [1CCD1743] (AR v2)Track 9 accurately ripped (confidence 2) [4AE022E4] (AR v2)Track 10 accurately ripped (confidence 2) [0E142784] (AR v2)Track 11 accurately ripped (confidence 2) [E5CFCE2E] (AR v2)Track 12 accurately ripped (confidence 2) [6151182E] (AR v2)Track 13 accurately ripped (confidence 2) [714D981C] (AR v2)Track 14 accurately ripped (confidence 2) [8E5A614A] (AR v2)Track 15 accurately ripped (confidence 2) [1507DB3B] (AR v2)Track 16 accurately ripped (confidence 2) [14647463] (AR v2)Track 17 accurately ripped (confidence 2) [DA58E51E] (AR v2)Track 18 accurately ripped (confidence 2) [AC3A3C1D] (AR v2)
All tracks accurately ripped
End of status report
---- CUETools DB Plugin V2.1.3
[CTDB TOCID: NNED.Hx69.vlj.aCqZ0yj3kevyw-] disk not present in database, Submit result: NNED.Hx69.vlj.aCqZ0yj3kevyw- has been uploaded
==== Log checksum F140B733C35DE9489F093CF6956B598586B25EF5217AE22EAADC8A8650924273 ====

Disc 4 - Concertos Op.4 'La Stravaganza', Nos.7-12 (55:12)

Exact Audio Copy V1.0 beta 3 from 29. August 2011
EAC extraction logfile from 23. August 2014, 15:58
Unknown Artist / Unknown Title
Used drive : PIONEER DVD-RW DVRTD11RS Adapter: 1 ID: 0
Read mode : SecureUtilize accurate stream : YesDefeat audio cache : YesMake use of C2 pointers : No
Read offset correction : 6Overread into Lead-In and Lead-Out : NoFill up missing offset samples with silence : YesDelete leading and trailing silent blocks : NoNull samples used in CRC calculations : YesUsed interface : Native Win32 interface for Win NT & 2000
Used output format : User Defined EncoderSelected bitrate : 128 kBit/sQuality : HighAdd ID3 tag : NoCommand line compressor : C:\Program Files\Monkey's Audio\MAC.exeAdditional command line options : %source% %dest% -c3000
TOC of the extracted CD
Track | Start | Length | Start sector | End sector --------------------------------------------------------- 1 | 0:00.00 | 2:13.05 | 0 | 9979 2 | 2:13.05 | 2:15.52 | 9980 | 20156 3 | 4:28.57 | 1:42.49 | 20157 | 27855 4 | 6:11.31 | 2:22.65 | 27856 | 38570 5 | 8:34.21 | 2:04.19 | 38571 | 47889 6 | 10:38.40 | 0:15.00 | 47890 | 49014 7 | 10:53.40 | 0:45.17 | 49015 | 52406 8 | 11:38.57 | 2:05.09 | 52407 | 61790 9 | 13:43.66 | 4:05.40 | 61791 | 80205 10 | 17:49.31 | 3:09.04 | 80206 | 94384 11 | 20:58.35 | 2:40.30 | 94385 | 106414 12 | 23:38.65 | 2:31.64 | 106415 | 117803 13 | 26:10.54 | 3:01.22 | 117804 | 131400 14 | 29:12.01 | 3:05.12 | 131401 | 145287 15 | 32:17.13 | 3:10.72 | 145288 | 159609 16 | 35:28.10 | 2:54.20 | 159610 | 172679 17 | 38:22.30 | 3:07.32 | 172680 | 186736 18 | 41:29.62 | 1:58.47 | 186737 | 195633 19 | 43:28.34 | 3:07.27 | 195634 | 209685 20 | 46:35.61 | 4:11.52 | 209686 | 228562 21 | 50:47.38 | 4:23.51 | 228563 | 248338
Range status and errors
Selected range
Filename C:\Documents and Settings\Администратор\Мои документы\CDImage.wav
Peak level 99.9 % Extraction speed 2.0 X Range quality 100.0 % Test CRC FEC20037 Copy CRC FEC20037 Copy OK
No errors occurred
AccurateRip summary
Track 1 accurately ripped (confidence 2) [F2769603] (AR v2)Track 2 accurately ripped (confidence 2) [6BA24A55] (AR v2)Track 3 accurately ripped (confidence 2) [B781CAC4] (AR v2)Track 4 accurately ripped (confidence 2) [44F3B17B] (AR v2)Track 5 accurately ripped (confidence 2) [AAE37206] (AR v2)Track 6 accurately ripped (confidence 2) [7714AD1E] (AR v2)Track 7 accurately ripped (confidence 2) [517EED91] (AR v2)Track 8 accurately ripped (confidence 2) [B5397EA3] (AR v2)Track 9 accurately ripped (confidence 2) [A8EE8D5C] (AR v2)Track 10 accurately ripped (confidence 2) [CF64B540] (AR v2)Track 11 accurately ripped (confidence 2) [41ABEC9A] (AR v2)Track 12 accurately ripped (confidence 2) [AB317514] (AR v2)Track 13 accurately ripped (confidence 2) [301F255F] (AR v2)Track 14 accurately ripped (confidence 2) [A3DE6A9C] (AR v2)Track 15 accurately ripped (confidence 2) [4B9FC2E7] (AR v2)Track 16 accurately ripped (confidence 2) [29944E03] (AR v2)Track 17 accurately ripped (confidence 2) [2F68FFDE] (AR v2)Track 18 accurately ripped (confidence 2) [7717AD42] (AR v2)Track 19 accurately ripped (confidence 2) [76A7E936] (AR v2)Track 20 accurately ripped (confidence 2) [3078DD8F] (AR v2)Track 21 accurately ripped (confidence 2) [A294DDEA] (AR v2)
All tracks accurately ripped
End of status report
---- CUETools DB Plugin V2.1.3
[CTDB TOCID: cSMDW5sbjtjP3PYcSfWrt4N3Eds-] disk not present in database, Submit result: cSMDW5sbjtjP3PYcSfWrt4N3Eds- has been uploaded
==== Log checksum 4C3E5001E45119EE282801E0E3633917867B4F0C4CF67E9A3A25F2C85B0B1F23 ====

Disc 5 - Sonatas for violin and continuo, Op.5 (34:48)

Exact Audio Copy V1.0 beta 3 from 29. August 2011
EAC extraction logfile from 23. August 2014, 14:42
Unknown Artist / Unknown Title
Used drive : PIONEER DVD-RW DVRTD11RS Adapter: 1 ID: 0
Read mode : SecureUtilize accurate stream : YesDefeat audio cache : YesMake use of C2 pointers : No
Read offset correction : 6Overread into Lead-In and Lead-Out : NoFill up missing offset samples with silence : YesDelete leading and trailing silent blocks : NoNull samples used in CRC calculations : YesUsed interface : Native Win32 interface for Win NT & 2000
Used output format : User Defined EncoderSelected bitrate : 128 kBit/sQuality : HighAdd ID3 tag : NoCommand line compressor : C:\Program Files\Monkey's Audio\MAC.exeAdditional command line options : %source% %dest% -c3000
TOC of the extracted CD
Track | Start | Length | Start sector | End sector --------------------------------------------------------- 1 | 0:00.30 | 5:49.55 | 30 | 26259 2 | 5:50.10 | 4:43.40 | 26260 | 47524 3 | 10:33.50 | 6:03.70 | 47525 | 74819 4 | 16:37.45 | 6:30.55 | 74820 | 104124 5 | 23:08.25 | 6:38.50 | 104125 | 134024 6 | 29:47.00 | 5:01.60 | 134025 | 156659
Range status and errors
Selected range
Filename C:\Documents and Settings\Администратор\Мои документы\CDImage.wav
Peak level 100.0 % Extraction speed 1.8 X Range quality 100.0 % Test CRC 5C1B46B9 Copy CRC 5C1B46B9 Copy OK
No errors occurred
AccurateRip summary
Track 1 accurately ripped (confidence 2) [DC847578] (AR v2)Track 2 accurately ripped (confidence 2) [A49F8CB8] (AR v2)Track 3 accurately ripped (confidence 2) [79A380DA] (AR v2)Track 4 accurately ripped (confidence 2) [604469B9] (AR v2)Track 5 accurately ripped (confidence 2) [44F3027E] (AR v2)Track 6 accurately ripped (confidence 2) [71EF8CE9] (AR v2)
All tracks accurately ripped
End of status report
---- CUETools DB Plugin V2.1.3
[CTDB TOCID: eSA2WmLBIn3sn3c09CsGQZYRGFQ-] disk not present in database, Submit result: discs with pregaps not supported in this protocol version
==== Log checksum 409CF540551B79ACDCF9C190AD7516BFDCAEDE860D11A9F48EB808898AAC7CC4 ====

Disc 6 - Six Concertos, Op.6 (52:57)

Exact Audio Copy V1.0 beta 3 from 29. August 2011
EAC extraction logfile from 23. August 2014, 13:33
Unknown Artist / Unknown Title
Used drive : PIONEER DVD-RW DVRTD11RS Adapter: 1 ID: 0
Read mode : SecureUtilize accurate stream : YesDefeat audio cache : YesMake use of C2 pointers : No
Read offset correction : 6Overread into Lead-In and Lead-Out : NoFill up missing offset samples with silence : YesDelete leading and trailing silent blocks : NoNull samples used in CRC calculations : YesUsed interface : Native Win32 interface for Win NT & 2000
Used output format : User Defined EncoderSelected bitrate : 128 kBit/sQuality : HighAdd ID3 tag : NoCommand line compressor : C:\Program Files\Monkey's Audio\MAC.exeAdditional command line options : %source% %dest% -c3000
TOC of the extracted CD
Track | Start | Length | Start sector | End sector --------------------------------------------------------- 1 | 0:00.33 | 3:28.45 | 33 | 15677 2 | 3:29.03 | 4:34.67 | 15678 | 36294 3 | 8:03.70 | 2:41.30 | 36295 | 48399 4 | 10:45.25 | 3:53.53 | 48400 | 65927 5 | 14:39.03 | 2:06.02 | 65928 | 75379 6 | 16:45.05 | 3:27.50 | 75380 | 90954 7 | 20:12.55 | 3:20.68 | 90955 | 106022 8 | 23:33.48 | 2:31.72 | 106023 | 117419 9 | 26:05.45 | 2:42.18 | 117420 | 129587 10 | 28:47.63 | 2:04.02 | 129588 | 138889 11 | 30:51.65 | 1:30.73 | 138890 | 145712 12 | 32:22.63 | 2:24.00 | 145713 | 156512 13 | 34:46.63 | 3:05.40 | 156513 | 170427 14 | 37:52.28 | 3:03.37 | 170428 | 184189 15 | 40:55.65 | 2:13.73 | 184190 | 194237 16 | 43:09.63 | 3:35.00 | 194238 | 210362 17 | 46:44.63 | 2:44.72 | 210363 | 222734 18 | 49:29.60 | 3:27.38 | 222735 | 238297
Range status and errors
Selected range
Filename C:\Documents and Settings\Администратор\Мои документы\CDImage.wav
Peak level 100.0 % Extraction speed 2.3 X Range quality 100.0 % Test CRC 7345B8F2 Copy CRC 7345B8F2 Copy OK
No errors occurred
AccurateRip summary
Track 1 accurately ripped (confidence 2) [9475268D] (AR v2)Track 2 accurately ripped (confidence 2) [97C81C8E] (AR v2)Track 3 accurately ripped (confidence 2) [46C549AB] (AR v2)Track 4 accurately ripped (confidence 2) [D612D026] (AR v2)Track 5 accurately ripped (confidence 2) [6E4C9BF2] (AR v2)Track 6 accurately ripped (confidence 2) [E92C6635] (AR v2)Track 7 accurately ripped (confidence 2) [B1CCBF86] (AR v2)Track 8 accurately ripped (confidence 2) [2393BCE7] (AR v2)Track 9 accurately ripped (confidence 2) [DD1432E4] (AR v2)Track 10 accurately ripped (confidence 2) [88489E29] (AR v2)Track 11 accurately ripped (confidence 2) [B4C0B069] (AR v2)Track 12 accurately ripped (confidence 2) [EE57CCD7] (AR v2)Track 13 accurately ripped (confidence 2) [6C3D5AA1] (AR v2)Track 14 accurately ripped (confidence 2) [064B92C9] (AR v2)Track 15 accurately ripped (confidence 2) [3D021A88] (AR v2)Track 16 accurately ripped (confidence 2) [FB40A991] (AR v2)Track 17 accurately ripped (confidence 2) [85CA0273] (AR v2)Track 18 accurately ripped (confidence 2) [95F2DBF6] (AR v2)
All tracks accurately ripped
End of status report
---- CUETools DB Plugin V2.1.3
[CTDB TOCID: drRK74rPi2X10u2VtINPW5qnNH8-] disk not present in database, Submit result: discs with pregaps not supported in this protocol version
==== Log checksum 0F7026F0245EBED66E2EFA6BD2826DEC5521FC91856BB6BB35B88FA5032293B5 ====

Disc 7 - The Four Seasons, Op.8 (42:28)

Exact Audio Copy V1.0 beta 3 from 29. August 2011
EAC extraction logfile from 23. August 2014, 17:07
Vivaldi, Antonio / Le Quattro Stagioni - Violino: Franco Fantini
Used drive : PIONEER DVD-RW DVRTD11RS Adapter: 1 ID: 0
Read mode : SecureUtilize accurate stream : YesDefeat audio cache : YesMake use of C2 pointers : No
Read offset correction : 6Overread into Lead-In and Lead-Out : NoFill up missing offset samples with silence : YesDelete leading and trailing silent blocks : NoNull samples used in CRC calculations : YesUsed interface : Native Win32 interface for Win NT & 2000
Used output format : User Defined EncoderSelected bitrate : 128 kBit/sQuality : HighAdd ID3 tag : NoCommand line compressor : C:\Program Files\Monkey's Audio\MAC.exeAdditional command line options : %source% %dest% -c3000
TOC of the extracted CD
Track | Start | Length | Start sector | End sector --------------------------------------------------------- 1 | 0:00.32 | 3:13.23 | 32 | 14529 2 | 3:13.55 | 2:48.35 | 14530 | 27164 3 | 6:02.15 | 4:34.60 | 27165 | 47774 4 | 10:37.00 | 5:56.32 | 47775 | 74506 5 | 16:33.32 | 2:29.68 | 74507 | 85749 6 | 19:03.25 | 2:59.37 | 85750 | 99211 7 | 22:02.62 | 5:16.38 | 99212 | 122949 8 | 27:19.25 | 2:56.25 | 122950 | 136174 9 | 30:15.50 | 3:34.25 | 136175 | 152249 10 | 33:50.00 | 3:26.05 | 152250 | 167704 11 | 37:16.05 | 2:04.70 | 167705 | 177074 12 | 39:21.00 | 3:07.12 | 177075 | 191111
Range status and errors
Selected range
Filename C:\Documents and Settings\Администратор\Мои документы\CDImage.wav
Peak level 63.0 % Extraction speed 1.8 X Range quality 100.0 % Test CRC 05EFEC40 Copy CRC 05EFEC40 Copy OK
No errors occurred
AccurateRip summary
Track 1 accurately ripped (confidence 2) [433217BE] (AR v2)Track 2 accurately ripped (confidence 2) [9822C836] (AR v2)Track 3 accurately ripped (confidence 2) [BFF48EF7] (AR v2)Track 4 accurately ripped (confidence 2) [D269CFD5] (AR v2)Track 5 accurately ripped (confidence 2) [DD239BAF] (AR v2)Track 6 accurately ripped (confidence 2) [40F5FF68] (AR v2)Track 7 accurately ripped (confidence 2) [A5DA0E3F] (AR v2)Track 8 accurately ripped (confidence 2) [CCF152E3] (AR v2)Track 9 accurately ripped (confidence 2) [49145496] (AR v2)Track 10 accurately ripped (confidence 2) [B85839DD] (AR v2)Track 11 accurately ripped (confidence 2) [4BCA2532] (AR v2)Track 12 accurately ripped (confidence 2) [7F1BCB6C] (AR v2)
All tracks accurately ripped
End of status report
---- CUETools DB Plugin V2.1.3
[CTDB TOCID: U_T.VRfHiAotNdNy1JrgXged_aw-] disk not present in database, Submit result: discs with pregaps not supported in this protocol version
==== Log checksum 680F6C49FDB585CB0C46A9B7F0CFC1B96577C6CF23223CEED9D1ECC7993313EA ====

Disc 8 - Six Violin Concertos, Op.12 (61:46)

Exact Audio Copy V1.0 beta 3 from 29. August 2011
EAC extraction logfile from 23. August 2014, 18:40
I Solisti Di Milano,Dir.Angelo Ephrikian,Viloino: Franco Fantini / Sei Concerti A Vilino Principale Op. 12
Used drive : PIONEER DVD-RW DVRTD11RS Adapter: 1 ID: 0
Read mode : SecureUtilize accurate stream : YesDefeat audio cache : YesMake use of C2 pointers : No
Read offset correction : 6Overread into Lead-In and Lead-Out : NoFill up missing offset samples with silence : YesDelete leading and trailing silent blocks : NoNull samples used in CRC calculations : YesUsed interface : Native Win32 interface for Win NT & 2000
Used output format : User Defined EncoderSelected bitrate : 128 kBit/sQuality : HighAdd ID3 tag : NoCommand line compressor : C:\Program Files\Monkey's Audio\MAC.exeAdditional command line options : %source% %dest% -c3000
TOC of the extracted CD
Track | Start | Length | Start sector | End sector --------------------------------------------------------- 1 | 0:00.33 | 4:29.07 | 33 | 20214 2 | 4:29.40 | 4:32.25 | 20215 | 40639 3 | 9:01.65 | 3:27.63 | 40640 | 56227 4 | 12:29.53 | 2:30.20 | 56228 | 67497 5 | 14:59.73 | 1:59.07 | 67498 | 76429 6 | 16:59.05 | 2:06.48 | 76430 | 85927 7 | 19:05.53 | 3:37.00 | 85928 | 102202 8 | 22:42.53 | 3:22.30 | 102203 | 117382 9 | 26:05.08 | 3:57.22 | 117383 | 135179 10 | 30:02.30 | 3:45.53 | 135180 | 152107 11 | 33:48.08 | 2:56.10 | 152108 | 165317 12 | 36:44.18 | 2:38.65 | 165318 | 177232 13 | 39:23.08 | 0:40.72 | 177233 | 180304 14 | 40:04.05 | 3:55.50 | 180305 | 197979 15 | 43:59.55 | 2:30.60 | 197980 | 209289 16 | 46:30.40 | 3:04.45 | 209290 | 223134 17 | 49:35.10 | 4:43.43 | 223135 | 244402 18 | 54:18.53 | 2:57.15 | 244403 | 257692 19 | 57:15.68 | 4:30.00 | 257693 | 277942
Range status and errors
Selected range
Filename C:\Documents and Settings\Администратор\Мои документы\CDImage.wav
Peak level 91.1 % Extraction speed 2.3 X Range quality 100.0 % Test CRC C3027592 Copy CRC C3027592 Copy OK
No errors occurred
AccurateRip summary
Track 1 accurately ripped (confidence 2) [37C8A189] (AR v2)Track 2 accurately ripped (confidence 2) [EE6EA115] (AR v2)Track 3 accurately ripped (confidence 2) [9E758370] (AR v2)Track 4 accurately ripped (confidence 2) [1DC003FA] (AR v2)Track 5 accurately ripped (confidence 2) [0EF2B26E] (AR v2)Track 6 accurately ripped (confidence 2) [44F65BD1] (AR v2)Track 7 accurately ripped (confidence 2) [1EA1E1E8] (AR v2)Track 8 accurately ripped (confidence 2) [257DA6C0] (AR v2)Track 9 accurately ripped (confidence 2) [E7F6399B] (AR v2)Track 10 accurately ripped (confidence 2) [2C4972C9] (AR v2)Track 11 accurately ripped (confidence 2) [37FE1649] (AR v2)Track 12 accurately ripped (confidence 2) [BAD6A2C9] (AR v2)Track 13 accurately ripped (confidence 2) [0E1A5D7C] (AR v2)Track 14 accurately ripped (confidence 2) [0C637846] (AR v2)Track 15 accurately ripped (confidence 2) [63F05CA1] (AR v2)Track 16 accurately ripped (confidence 2) [83F44E18] (AR v2)Track 17 accurately ripped (confidence 2) [9915B010] (AR v2)Track 18 accurately ripped (confidence 2) [BC64F240] (AR v2)Track 19 accurately ripped (confidence 2) [DDFAEC4F] (AR v2)
All tracks accurately ripped
End of status report
---- CUETools DB Plugin V2.1.3
[CTDB TOCID: 9XcFhb8.V89keDd8V5EXTNUotww-] disk not present in database, Submit result: discs with pregaps not supported in this protocol version
==== Log checksum 9D7BD7527CDABAC13315364EF47BBE945415EEA1B708202CF78D2B5BB5F4A128 ====

Disc 9 - Six Sonatas for cello and basso continuo (57:58)

Exact Audio Copy V1.0 beta 3 from 29. August 2011
EAC extraction logfile from 24. August 2014, 11:01
Unknown Artist / Unknown Title
Used drive : PIONEER DVD-RW DVRTD11RS Adapter: 1 ID: 0
Read mode : SecureUtilize accurate stream : YesDefeat audio cache : YesMake use of C2 pointers : No
Read offset correction : 6Overread into Lead-In and Lead-Out : NoFill up missing offset samples with silence : YesDelete leading and trailing silent blocks : NoNull samples used in CRC calculations : YesUsed interface : Native Win32 interface for Win NT & 2000
Used output format : User Defined EncoderSelected bitrate : 128 kBit/sQuality : HighAdd ID3 tag : NoCommand line compressor : C:\Program Files\Monkey's Audio\MAC.exeAdditional command line options : %source% %dest% -c3000
TOC of the extracted CD
Track | Start | Length | Start sector | End sector --------------------------------------------------------- 1 | 0:00.30 | 9:43.50 | 30 | 43804 2 | 9:44.05 | 8:08.25 | 43805 | 80429 3 | 17:52.30 | 10:26.65 | 80430 | 127444 4 | 28:19.20 | 10:17.60 | 127445 | 173779 5 | 38:37.05 | 9:33.25 | 173780 | 216779 6 | 48:10.30 | 9:48.55 | 216780 | 260934
Range status and errors
Selected range
Filename C:\Documents and Settings\Администратор\Мои документы\CDImage.wav
Peak level 87.1 % Extraction speed 2.3 X Range quality 100.0 % Test CRC 897561B1 Copy CRC 897561B1 Copy OK
No errors occurred
AccurateRip summary
Track 1 accurately ripped (confidence 2) [1689E8DE] (AR v2)Track 2 accurately ripped (confidence 2) [67769484] (AR v2)Track 3 accurately ripped (confidence 2) [4F755060] (AR v2)Track 4 accurately ripped (confidence 2) [C32FF8D3] (AR v2)Track 5 accurately ripped (confidence 2) [44DC750F] (AR v2)Track 6 accurately ripped (confidence 2) [7724C4D2] (AR v2)
All tracks accurately ripped
End of status report
---- CUETools DB Plugin V2.1.3
[CTDB TOCID: qskB9Cz8pRa3e1wpEIgdHRnBltM-] disk not present in database, Submit result: discs with pregaps not supported in this protocol version
==== Log checksum 00A38F343F160873EDAEF47437646CF4E3E995B7F506D3E72ED7A66DCB9C4A81 ====
[teatrix.ru].t9850.torrent 
Торрент: Зарегистрирован [ 2015-10-25 20:37 ] · 382A6CA028559E854B37AFAAA8B4862ADF2160D4

Скачать .torrent

Скачать

12 KB

Статус: проверено
Скачан: 0 раз
Размер: 2.05 GB
terms.php



Быстрый ответ

Имя:

      
Для отправки сообщений необходимо включить JavaScript
Показать сообщения:    

Текущее время: 19-Янв 22:17

Часовой пояс: UTC + 3


Вы можете начинать темы
Вы можете отвечать на сообщения
Вы не можете редактировать свои сообщения
Вы не можете удалять свои сообщения
Вы не можете голосовать в опросах
Вы не можете прикреплять файлы к сообщениям
Вы можете скачивать файлы