(Classical) Frederic Chopin - Piano Concertos - Ingrid Fliter, Scottish Chamber Orchestra, Jun Märkl (Markl) - 2014, FLAC (image+.cue) lossless


Статистика раздачи [Обновить пиров]
Размер:  267 MB   |    Зарегистрирован:  1 год 1 месяц   |    Скачан:  1 раз

Полного источника не было: 3 месяца 9 дней

Личеров:  1  [  0 KB/s  ]   Подробная статистика пиров
 
   
 
 
 

[Цитировать]

Frederic Chopin - Piano Concertos - Ingrid Fliter, Scottish Chamber Orchestra, Jun Märkl
Жанр: Classical
Страна-производитель диска: UK
Год издания диска: 2014
Издатель (лейбл): Linn Records
Номер по каталогу: CKD 455
Дата записи: 2013
Аудиокодек: FLAC
Тип рипа: image+.cue
Битрейт аудио: lossless
Продолжительность: 73:21
Источник: собственный рип
Наличие сканов в содержимом раздачи: да
Треклист:
Frédéric Chopin
[1]-[3] Piano Concerto No. 1 in E minor, Op. 11
[4]-[6] Piano Concerto No. 2 in F minor, Op. 21
Исполнители:
Ingrid Fliter piano
Scottish Chamber Orchestra
Jun Märkl
conductor

Лог создания рипа

Exact Audio Copy V1.0 beta 3 from 29. August 2011
EAC extraction logfile from 30. August 2014, 16:45
Ingrid Fliter, Scottish Chamber Orchestra, Jun Markl / Chopin - Piano Concertos
Used drive : HL-DT-STDVDRAM GU70N Adapter: 0 ID: 0
Read mode : SecureUtilize accurate stream : YesDefeat audio cache : YesMake use of C2 pointers : No
Read offset correction : 48Overread into Lead-In and Lead-Out : NoFill up missing offset samples with silence : YesDelete leading and trailing silent blocks : NoNull samples used in CRC calculations : YesUsed interface : Native Win32 interface for Win NT & 2000
Used output format : User Defined EncoderSelected bitrate : 128 kBit/sQuality : HighAdd ID3 tag : NoCommand line compressor : C:\Program Files (x86)\Exact Audio Copy\Flac\flac.exeAdditional command line options : -V -8 -T "Date=%year%" -T "Genre=%genre%" %source%
TOC of the extracted CD
Track | Start | Length | Start sector | End sector --------------------------------------------------------- 1 | 0:00.00 | 20:02.44 | 0 | 90193 2 | 20:02.44 | 9:32.71 | 90194 | 133164 3 | 29:35.40 | 10:21.50 | 133165 | 179789 4 | 39:57.15 | 15:05.07 | 179790 | 247671 5 | 55:02.22 | 9:25.22 | 247672 | 290068 6 | 64:27.44 | 8:51.52 | 290069 | 329945
Range status and errors
Selected range
Filename C:\temp\Chopin - Piano Concertos - Fliter\Chopin - Piano Concertos.wav
Peak level 94.8 % Extraction speed 2.3 X Range quality 100.0 % Test CRC 3851EE89 Copy CRC 3851EE89 Copy OK
No errors occurred
AccurateRip summary
Track 1 accurately ripped (confidence 3) [216C046B] (AR v2)Track 2 accurately ripped (confidence 3) [D117DF6A] (AR v2)Track 3 accurately ripped (confidence 3) [FBEF0815] (AR v2)Track 4 accurately ripped (confidence 3) [0760C945] (AR v2)Track 5 accurately ripped (confidence 3) [27E3003D] (AR v2)Track 6 accurately ripped (confidence 3) [057F59C7] (AR v2)
All tracks accurately ripped
End of status report
==== Log checksum CFE07445240FF8DC3EA95BDE9EB4E6BC03EC105D28D11D8FB99E234EFDEB07B8 ====
[teatrix.ru].t9851.torrent 
Торрент: Зарегистрирован [ 2015-10-25 20:37 ] · 7222B766198AE4C8D2A9E5BFF255E918A0179FF8

Скачать .torrent

Скачать

22 KB

Статус: проверено
Скачан: 1 раз
Размер: 267 MB
terms.php



Быстрый ответ

Имя:

      
Для отправки сообщений необходимо включить JavaScript
Показать сообщения:    

Текущее время: 09-Дек 14:41

Часовой пояс: UTC + 3


Вы можете начинать темы
Вы можете отвечать на сообщения
Вы не можете редактировать свои сообщения
Вы не можете удалять свои сообщения
Вы не можете голосовать в опросах
Вы не можете прикреплять файлы к сообщениям
Вы можете скачивать файлы