(Classical) Дмитрий Шостакович - Концерты для виолончели с оркестром - Truls Mørk (Mork), Oslo Philharmonic Orchestra, Василий Петренко - 2014, FLAC (image+.cue) lossless


Статистика раздачи [Обновить пиров]
Размер:  259 MB   |    Зарегистрирован:  1 год 1 месяц   |    Скачан:  1 раз

Полного источника не было: 2 месяца 27 дней

Личеров:  1  [  0 KB/s  ]   Подробная статистика пиров
 
   
 
 
 

[Цитировать]

Дмитрий Шостакович - Концерты для виолончели с оркестром - Truls Mørk, Oslo Philharmonic Orchestra, Василий Петренко
Жанр: Classical
Страна-производитель диска: Finland
Год издания диска: 2014
Издатель (лейбл): Ondine
Номер по каталогу: ODE 1218-2
Дата записи: 2013
Аудиокодек: FLAC
Тип рипа: image+.cue
Битрейт аудио: lossless
Продолжительность: 64:59
Источник: собственный рип
Наличие сканов в содержимом раздачи: да
Треклист:
Дмитрий Дмитриевич Шостакович (1906-1975)
[1]-[4] Концерт для виолончели с оркестром № 1 ми бемоль мажор, Op. 107
[5]-[7] Концерт для виолончели с оркестром № 2 соль мажор, Op. 126
Исполнители:
Truls Mørk cello
Oslo Philharmonic Orchestra
Vasily Petrenko

Лог создания рипа

Exact Audio Copy V1.0 beta 3 from 29. August 2011
EAC extraction logfile from 28. August 2014, 11:48
Truls Mørk, Oslo Philharmonic Orchestra, Vasily Petrenko / Shostakovich - Cello Concertos
Used drive : HL-DT-STDVDRAM GU70N Adapter: 0 ID: 0
Read mode : SecureUtilize accurate stream : YesDefeat audio cache : YesMake use of C2 pointers : No
Read offset correction : 48Overread into Lead-In and Lead-Out : NoFill up missing offset samples with silence : YesDelete leading and trailing silent blocks : NoNull samples used in CRC calculations : YesUsed interface : Native Win32 interface for Win NT & 2000
Used output format : User Defined EncoderSelected bitrate : 128 kBit/sQuality : HighAdd ID3 tag : NoCommand line compressor : C:\Program Files (x86)\Exact Audio Copy\Flac\flac.exeAdditional command line options : -V -8 -T "Date=%year%" -T "Genre=%genre%" %source%
TOC of the extracted CD
Track | Start | Length | Start sector | End sector --------------------------------------------------------- 1 | 0:00.00 | 5:59.51 | 0 | 26975 2 | 5:59.51 | 11:41.51 | 26976 | 79601 3 | 17:41.27 | 6:13.26 | 79602 | 107602 4 | 23:54.53 | 4:52.24 | 107603 | 129526 5 | 28:47.02 | 14:31.01 | 129527 | 194852 6 | 43:18.03 | 4:34.00 | 194853 | 215402 7 | 47:52.03 | 17:05.03 | 215403 | 292280
Range status and errors
Selected range
Filename C:\temp\Shostakovich - Cello Concertos - Mork\Shostakovich - Cello Concertos.wav
Peak level 100.0 % Extraction speed 2.2 X Range quality 100.0 % Test CRC EFAB42AC Copy CRC EFAB42AC Copy OK
No errors occurred
AccurateRip summary
Track 1 not present in databaseTrack 2 not present in databaseTrack 3 not present in databaseTrack 4 not present in databaseTrack 5 not present in databaseTrack 6 not present in databaseTrack 7 not present in database
None of the tracks are present in the AccurateRip database
End of status report
==== Log checksum 42FA23AF2D932EDD923D24C2BBE521FC68CF548E7393E5CF809A5C8487C448AF ====
[teatrix.ru].t9852.torrent 
Торрент: Зарегистрирован [ 2015-10-25 20:37 ] · BADD29869CD4F828FBA4DEED3FCD8471D1A4E6F9

Скачать .torrent

Скачать

21 KB

Статус: проверено
Скачан: 1 раз
Размер: 259 MB
terms.php



Быстрый ответ

Имя:

      
Для отправки сообщений необходимо включить JavaScript
Показать сообщения:    

Текущее время: 05-Дек 17:34

Часовой пояс: UTC + 3


Вы можете начинать темы
Вы можете отвечать на сообщения
Вы не можете редактировать свои сообщения
Вы не можете удалять свои сообщения
Вы не можете голосовать в опросах
Вы не можете прикреплять файлы к сообщениям
Вы можете скачивать файлы