(Classical) Johann Gottlieb Graun, Carl Heinrich Graun - Oboe Concertos - Xenia Loffler, Batzdorfer Hofkapelle - 2013, FLAC (image+.cue) lossless


Статистика раздачи [Обновить пиров]
Размер:  392 MB   |    Зарегистрирован:  1 год 1 месяц   |    Скачан:  0 раз

Полного источника не было: Никогда

Личеров:  1  [  0 KB/s  ]   Подробная статистика пиров
 
   
 
 
 

[Цитировать]

Johann Gottlieb Graun, Carl Heinrich Graun - Oboe Concertos - Xenia Löffler, Batzdorfer Hofkapelle
Жанр: Classical
Страна-производитель диска: Belgium
Год издания диска: 2013
Издатель (лейбл): Accent
Номер по каталогу: ACC 24280
Дата записи: 2012
Аудиокодек: FLAC
Тип рипа: image+.cue
Битрейт аудио: lossless
Продолжительность: 71:32
Источник: собственный рип
Наличие сканов в содержимом раздачи: да
Треклист:
Johann Christoph Friedrich Förster (1693-1745)
(attr. Graun)
[1]-[3] Concerto à 5 for oboe, strings & b. c. in C minor (D:XIII:165)
Johann Baptist Georg Neruda (c 1711-1776)
(attr. Graun)
[4]-[6] Sinfonia Friderico for 2 violins, viola & b. c. in G major (D:XII:108)
Johann Gottlieb Graun (1701/02-1771)
or Carl Heinrich Graun (1703/04-1759) (?)
[7]-[9] Concerto à 5 for oboe, strings & b. c. in F major (Cv:XIII:128)
J. G. or C. H. Graun (?)
[10]-[13] Quartet for 2 violins, viola, violoncello & b. c. in C minor (Cv:XIV:19)
J. G. or C. H. Graun (?)
[1]4-[16] Concerto à 5 for oboe, strings & b. c. in G minor (Cv:XIII:144)
J. G. or C. H. Graun (?)
[17]-[19] Trio sonata for 2 violins & b. c. in B minor (C:XV:92)
J. G. or C. H. Graun (?)
[20]-[22] Concerto à 4 for oboe d’amore, 2 violins & b. c. in A major (D:XIII:179)
Исполнители:
Xenia Löffler oboe & oboe d’amore
Batzdorfer Hofkapelle

Лог создания рипа

Exact Audio Copy V1.0 beta 3 from 29. August 2011
EAC extraction logfile from 3. September 2014, 1:10
Xenia Loffler, Batzdorfer Hofkapelle / Graun - Oboe Concertos
Used drive : HL-DT-STDVDRAM GU70N Adapter: 0 ID: 0
Read mode : SecureUtilize accurate stream : YesDefeat audio cache : YesMake use of C2 pointers : No
Read offset correction : 48Overread into Lead-In and Lead-Out : NoFill up missing offset samples with silence : YesDelete leading and trailing silent blocks : NoNull samples used in CRC calculations : YesUsed interface : Native Win32 interface for Win NT & 2000
Used output format : User Defined EncoderSelected bitrate : 128 kBit/sQuality : HighAdd ID3 tag : NoCommand line compressor : C:\Program Files (x86)\Exact Audio Copy\Flac\flac.exeAdditional command line options : -V -8 -T "Date=%year%" -T "Genre=%genre%" %source%
TOC of the extracted CD
Track | Start | Length | Start sector | End sector --------------------------------------------------------- 1 | 0:00.00 | 4:41.12 | 0 | 21086 2 | 4:41.12 | 5:26.04 | 21087 | 45540 3 | 10:07.16 | 3:43.68 | 45541 | 62333 4 | 13:51.09 | 2:50.67 | 62334 | 75150 5 | 16:42.01 | 2:30.07 | 75151 | 86407 6 | 19:12.08 | 1:31.15 | 86408 | 93247 7 | 20:43.23 | 4:03.35 | 93248 | 111507 8 | 24:46.58 | 3:23.36 | 111508 | 126768 9 | 28:10.19 | 2:31.72 | 126769 | 138165 10 | 30:42.16 | 1:56.53 | 138166 | 146918 11 | 32:38.69 | 2:20.32 | 146919 | 157450 12 | 34:59.26 | 1:25.53 | 157451 | 163878 13 | 36:25.04 | 3:27.43 | 163879 | 179446 14 | 39:52.47 | 3:50.15 | 179447 | 196711 15 | 43:42.62 | 3:52.31 | 196712 | 214142 16 | 47:35.18 | 3:17.33 | 214143 | 228950 17 | 50:52.51 | 4:56.22 | 228951 | 251172 18 | 55:48.73 | 3:18.66 | 251173 | 266088 19 | 59:07.64 | 3:31.59 | 266089 | 281972 20 | 62:39.48 | 2:45.74 | 281973 | 294421 21 | 65:25.47 | 3:35.28 | 294422 | 310574 22 | 69:01.00 | 2:29.00 | 310575 | 321749
Range status and errors
Selected range
Filename C:\temp\ACC 24280 Graun - Oboe Concertos (Xenia Loffler, Batzdorfer Hofkapelle)\Graun - Oboe Concertos.wav
Peak level 94.4 % Extraction speed 5.2 X Range quality 100.0 % Test CRC 9B127DDE Copy CRC 9B127DDE Copy OK
No errors occurred
AccurateRip summary
Track 1 accurately ripped (confidence 2) [622D4CBC] (AR v2)Track 2 accurately ripped (confidence 3) [30A0BAFA] (AR v2)Track 3 accurately ripped (confidence 3) [01ECA25F] (AR v2)Track 4 accurately ripped (confidence 3) [E92C7054] (AR v2)Track 5 accurately ripped (confidence 3) [3AF99AEF] (AR v2)Track 6 accurately ripped (confidence 3) [EC8926E4] (AR v2)Track 7 accurately ripped (confidence 3) [D585905C] (AR v2)Track 8 accurately ripped (confidence 3) [07D46C90] (AR v2)Track 9 accurately ripped (confidence 3) [9DD85540] (AR v2)Track 10 accurately ripped (confidence 3) [F92DA5B5] (AR v2)Track 11 accurately ripped (confidence 3) [56224E81] (AR v2)Track 12 accurately ripped (confidence 3) [54513EDD] (AR v2)Track 13 accurately ripped (confidence 3) [9C02DB1A] (AR v2)Track 14 accurately ripped (confidence 3) [FE4D79BF] (AR v2)Track 15 accurately ripped (confidence 3) [8145D2BF] (AR v2)Track 16 accurately ripped (confidence 3) [F838ED50] (AR v2)Track 17 accurately ripped (confidence 3) [EC6A619A] (AR v2)Track 18 accurately ripped (confidence 3) [5AAB7714] (AR v2)Track 19 accurately ripped (confidence 3) [116AE770] (AR v2)Track 20 accurately ripped (confidence 3) [AD9C0EF5] (AR v2)Track 21 accurately ripped (confidence 3) [65584F8B] (AR v2)Track 22 accurately ripped (confidence 3) [BA02C9D9] (AR v2)
All tracks accurately ripped
End of status report
==== Log checksum 452FB6FF1184281498103C42A2D133BFEBD6EF7A6D7B37F707BEDCF2243326DC ====
[teatrix.ru].t9854.torrent 
Торрент: Зарегистрирован [ 2015-10-25 20:37 ] · E952C6A122F7407F3AF3A21536E139F7486B2B28

Скачать .torrent

Скачать

32 KB

Статус: проверено
Скачан: 0 раз
Размер: 392 MB
terms.php



Быстрый ответ

Имя:

      
Для отправки сообщений необходимо включить JavaScript
Показать сообщения:    

Текущее время: 07-Дек 21:23

Часовой пояс: UTC + 3


Вы можете начинать темы
Вы можете отвечать на сообщения
Вы не можете редактировать свои сообщения
Вы не можете удалять свои сообщения
Вы не можете голосовать в опросах
Вы не можете прикреплять файлы к сообщениям
Вы можете скачивать файлы