(Classical, Modern, Orchestral, Violin) Бела Барток / Bela Bartok - Концерты для скрипки с оркестром - Андре Гертлер / Andre Gertler - 1988, APE (image+.cue) lossless


Статистика раздачи [Обновить пиров]
Размер:  290 MB   |    Зарегистрирован:  1 год 1 месяц   |    Скачан:  0 раз

Полного источника не было: Никогда

Личеров:  1  [  0 KB/s  ]   Подробная статистика пиров
 
   
 
 
 

[Цитировать]

Бела Барток - Концерты для скрипки с оркестром - Андре Гертлер
Жанр: Classical, Modern, Orchestral, Violin
Страна-производитель диска: Чехия
Год издания диска: 1988
Издатель (лейбл): Supraphon
Номер по каталогу: 11 0632-2 011
Дата записи: 1962 (No.1), 1965 (No.2)
Аудиокодек: APE
Тип рипа: image+.cue
Битрейт аудио: lossless
Продолжительность: 58:54
Источник: e2dk
Наличие сканов в содержимом раздачи: нет
Треклист:
Концерт для скрипки с оркестром No.1
01. I. Andante sostenuto
02. II. Allegro giocoso
Концерт для скрипки с оркестром No.2
03. I. Allegro non troppo
04. II. Andante tranquillo. Lento. Allegro scherzando. Comodo. Tempo I
05. III. Allegro molto
Исполнители:
Андре Гертлер / André Gertler - скрипка
Государственный филармонический оркестр Брно / Brno State Philharmonic Orchestra (1-2)
Янош Ференчик / János Ferencsik - дирижёр (1-2)
Чешский филармонический оркестр / Czech Philharmonic Orchestra (3-5)
Карел Анчерл / Karel Ančerl - дирижёр (3-5)

Лог создания рипа

EAC 取り込みログファイル 日付 : 18. 2月 2006, 3:40 for CDBela Bartok / Violin concertos nos.1 & 2
使用ドライブ : _NEC DVD+RW ND-1100A Adapter: 3 ID: 0読み込みモード : セキュアモード (C2エラー訂正有り, 正確なデータ転送能力有り, キャッシュ有効)読み込み・書き込みサンプルオフセット訂正値 : 66リードイン・リードアウトをオーバーリードする : いいえ
使用出力モード : D:\Program Files\Monkey's Audio\MAC.exe (Monkey's Audio Lossless Encoder) High Lossless Compression
その他のオプション : 欠落したオフセットサンプルを無音で補完する : はい 曲の先頭と末端の無音領域を削除する : いいえ 外部ASPIインターフェイス
範囲取り込みステータス & エラー選択された範囲 ファイル名 F:\DeskTop\Bela Bartok - Violin concertos nos.1 & 2.wav
ピークレベル 100.0 % 範囲取り込み品質 100.0 % CRC 11F0ACD9 コピー OK
エラーは発生しませんでした
ステータス報告完了

Содержание индексной карты (.CUE)

REM COMMENT "ExactAudioCopy v0.95b3"PERFORMER "Andre Gertler"TITLE "Bela Bartok - Violin Concertos Nos.1 & 2 - Andre Gertler"FILE "Bela Bartok - Violin Concertos Nos.1 & 2.ape" WAVE TRACK 01 AUDIO TITLE "Violin Concerto No.1 - I. Andante sostenuto" PERFORMER "Andre Gertler" FLAGS PRE INDEX 00 00:00:00 INDEX 01 00:00:33 TRACK 02 AUDIO TITLE "Violin Concerto No.1 - II. Allegro giocoso" PERFORMER "Andre Gertler" FLAGS PRE INDEX 00 09:30:51 INDEX 01 09:31:55 TRACK 03 AUDIO TITLE "Violin Concerto No.2 - I. Allegro non troppo" PERFORMER "Andre Gertler" FLAGS PRE INDEX 00 21:22:73 INDEX 01 21:30:55 TRACK 04 AUDIO TITLE "Violin Concerto No.2 - II. Andante tranquillo. Lento. Allegro scherzando. Comodo. Tempo I" PERFORMER "Andre Gertler" FLAGS PRE INDEX 00 37:45:54 INDEX 01 37:49:58 TRACK 05 AUDIO TITLE "Violin Concerto No.2 - III. Allegro molto" PERFORMER "Andre Gertler" FLAGS PRE INDEX 00 47:32:53 INDEX 01 47:36:58
[teatrix.ru].t9855.torrent 
Торрент: Зарегистрирован [ 2015-10-25 20:37 ] · A3AF31CB4068CA639225AE426315436321BE135C

Скачать .torrent

Скачать

12 KB

Статус: проверено
Скачан: 0 раз
Размер: 290 MB
terms.php



Быстрый ответ

Имя:

      
Для отправки сообщений необходимо включить JavaScript
Показать сообщения:    

Текущее время: 05-Дек 17:36

Часовой пояс: UTC + 3


Вы можете начинать темы
Вы можете отвечать на сообщения
Вы не можете редактировать свои сообщения
Вы не можете удалять свои сообщения
Вы не можете голосовать в опросах
Вы не можете прикреплять файлы к сообщениям
Вы можете скачивать файлы