(Baroque concertos for organ and orchestra) Michel Corrette – Six Concertos for Organ and Orchestra (Jan Vladimir Michalko - organ / Slovak Chamber Orchestra, Bohdan Warchal) - 1988, FLAC (image+.cue) lossless


Статистика раздачи [Обновить пиров]
Размер:  293 MB   |    Зарегистрирован:  1 год 1 месяц   |    Скачан:  0 раз

Полного источника не было: Никогда

Личеров:  1  [  0 KB/s  ]   Подробная статистика пиров
 
   
 
 
 

[Цитировать]

Michel Corrette – Six Concertos for Organ and Orchestra – Jan Vladimir Michalko

Жанр: Baroque concertos for organ and orchestra
Страна-производитель диска: Product of Slovakia
Год издания диска: 1988
Издатель (лейбл): Opus
Номер по каталогу: 9350 1885
Дата записи: 1987
Аудиокодек: FLAC
Тип рипа: image+.cue
Битрейт аудио: lossless
Продолжительность: 63'12
Источник: релизер
сайт-источник/ник/другое: Odeon
Наличие сканов в содержимом раздачи: да
Треклист:

скрытый текст

01. Slovak Chamber Orchestra & Bohdan Warchal / Concertos à 6 (6), for organ (or harpsichord), 3 violins, flute, viola & cello, Op. 26- Concerto No. 1, in G major, Op. 26-1- Allegro [0:03:04.25]
02. Aria [0:05:27.72]
03. Allegro [0:03:39.00]
04. Slovak Chamber Orchestra & Bohdan Warchal / Concertos à 6 (6), for organ (or harpsichord), 3 violins, flute, viola & cello, Op. 26- Concerto No. 2, in A major, Op. 26-2- Allegro [0:02:33.00]
05. Adagio [0:03:54.28]
06. Allegro [0:02:33.00]
07. Slovak Chamber Orchestra & Bohdan Warchal / Concertos à 6 (6), for organ (or harpsichord), 3 violins, flute, viola & cello, Op. 26- Concerto No. 3, in D major, Op. 26-3- Allegro [0:03:07.20]
08. Aria (Andante) [0:01:52.17]
09. Adagio [0:01:27.38]
10. Allegro [0:04:33.47]
11. Slovak Chamber Orchestra & Bohdan Warchal / Concertos à 6 (6), for organ (or harpsichord), 3 violins, flute, viola & cello, Op. 26- Concerto No. 4, in C major, Op. 26-4- Allegro [0:03:39.68]
12. Andante [0:04:03.00]
13. Allegro [0:03:55.07]
14. Slovak Chamber Orchestra & Bohdan Warchal / Concertos à 6 (6), for organ (or harpsichord), 3 violins, flute, viola & cello, Op. 26- Concerto No. 5, in F major, Op. 26-5- Allegro [0:02:56.28]
15. Andante [0:05:29.22]
16. Allegro [0:03:02.70]
17. Slovak Chamber Orchestra & Bohdan Warchal / Concertos à 6 (6), for organ (or harpsichord), 3 violins, flute, viola & cello, Op. 26- Concerto No. 6, in D minor, Op. 26-6- Allegro [0:03:05.65]
18. Andante [0:01:41.60]
19. Presto [0:03:03.48]
Исполнители:

скрытый текст

Michel Corrette (1707-1795):
Concerto for Organ and Orchestra op.26 no.1 in G major
Concerto for Organ and Orchestra op.26 no.2 in A major
Concerto for Organ and Orchestra op.26 no.3 in D major
Concerto for Organ and Orchestra op.26 no.4 in C major
Concerto for Organ and Orchestra op.26 no.5 in F major
Concerto for Organ and Orchestra op.26 no.6 in D minor
Ján Vladimír Michalko - organ
Slovak Chamber Orchestra
Bohdan Warchal - conductor

Лог создания рипа

Exact Audio Copy V1.0 beta 3 from 29. August 2011
EAC extraction logfile from 13. January 2014, 16:19
Jan Vladimir Michalko / Corrette - Six Concertos for Organ and Orchestra - Jan Vladimir Michalko
Used drive : TSSTcorpCDDVDW SH-222BB Adapter: 2 ID: 1
Read mode : SecureUtilize accurate stream : YesDefeat audio cache : YesMake use of C2 pointers : No
Read offset correction : 6Overread into Lead-In and Lead-Out : NoFill up missing offset samples with silence : YesDelete leading and trailing silent blocks : NoNull samples used in CRC calculations : YesUsed interface : Native Win32 interface for Win NT & 2000
Used output format : User Defined EncoderSelected bitrate : 1024 kBit/sQuality : HighAdd ID3 tag : NoCommand line compressor : C:\Program Files\Exact Audio Copy\Flac\flac.exeAdditional command line options : -8 -V -T "TITLE=%title%" -T "ARTIST=%artist%" -T "ALBUMARTIST=%albumartist%" -T "ALBUM=%albumtitle%" -T "DATE=%year%" -T "TRACKNUMBER=%tracknr%" -T "TRACKTOTAL=%numtracks%" -T "GENRE=%genre%" -T "COMMENT=%comment%" -T "PERFORMER=%albuminterpret%" -T "COMPOSER=%composer%" %source% -o %dest%
TOC of the extracted CD
Track | Start | Length | Start sector | End sector --------------------------------------------------------- 1 | 0:00.33 | 3:04.25 | 33 | 13857 2 | 3:04.58 | 5:27.72 | 13858 | 38454 3 | 8:32.55 | 3:39.00 | 38455 | 54879 4 | 12:11.55 | 2:33.00 | 54880 | 66354 5 | 14:44.55 | 3:54.28 | 66355 | 83932 6 | 18:39.08 | 2:33.00 | 83933 | 95407 7 | 21:12.08 | 3:07.20 | 95408 | 109452 8 | 24:19.28 | 1:52.17 | 109453 | 117869 9 | 26:11.45 | 1:27.38 | 117870 | 124432 10 | 27:39.08 | 4:33.47 | 124433 | 144954 11 | 32:12.55 | 3:39.68 | 144955 | 161447 12 | 35:52.48 | 4:03.00 | 161448 | 179672 13 | 39:55.48 | 3:55.07 | 179673 | 197304 14 | 43:50.55 | 2:56.28 | 197305 | 210532 15 | 46:47.08 | 5:29.22 | 210533 | 235229 16 | 52:16.30 | 3:02.70 | 235230 | 248949 17 | 55:19.25 | 3:05.65 | 248950 | 262889 18 | 58:25.15 | 1:41.60 | 262890 | 270524 19 | 60:07.00 | 3:03.48 | 270525 | 284297
Range status and errors
Selected range
Filename G:\Ripped general\[8197] Corrette – Six Concertos for Organ and Orchestra – Jan Vladimir Michalko\Corrette - Six Concertos for Organ and Orchestra - Jan Vladimir Michalko.wav
Peak level 95.9 % Extraction speed 2.3 X Range quality 100.0 % Test CRC C9BB8200 Copy CRC C9BB8200 Copy OK
No errors occurred
AccurateRip summary
Track 1 accurately ripped (confidence 1) [ECDE6A57] (AR v2)Track 2 accurately ripped (confidence 1) [BF1A87A5] (AR v2)Track 3 accurately ripped (confidence 1) [2BDF6405] (AR v2)Track 4 accurately ripped (confidence 1) [10794B3E] (AR v2)Track 5 accurately ripped (confidence 1) [1962C825] (AR v2)Track 6 accurately ripped (confidence 1) [0445F562] (AR v2)Track 7 accurately ripped (confidence 1) [70562E1B] (AR v2)Track 8 accurately ripped (confidence 1) [DEC42216] (AR v2)Track 9 accurately ripped (confidence 1) [C66E16AC] (AR v2)Track 10 accurately ripped (confidence 1) [56D8E1D0] (AR v2)Track 11 accurately ripped (confidence 1) [01CCF874] (AR v2)Track 12 accurately ripped (confidence 1) [0E615D5E] (AR v2)Track 13 accurately ripped (confidence 1) [DF402DC0] (AR v2)Track 14 accurately ripped (confidence 1) [FEEDD4D7] (AR v2)Track 15 accurately ripped (confidence 1) [852D5021] (AR v2)Track 16 accurately ripped (confidence 1) [7D5A22A4] (AR v2)Track 17 accurately ripped (confidence 1) [AB9026CD] (AR v2)Track 18 accurately ripped (confidence 1) [50721899] (AR v2)Track 19 accurately ripped (confidence 1) [9783B817] (AR v2)
All tracks accurately ripped
End of status report

Содержание индексной карты (.CUE)

REM GENRE ClassicalREM DATE 1994REM DISCID 070ECE13REM COMMENT "ExactAudioCopy v1.0b3"PERFORMER "Jan Vladimir Michalko"TITLE "Corrette - Six Concertos for Organ and Orchestra - Jan Vladimir Michalko"FILE "Corrette - Six Concertos for Organ and Orchestra - Jan Vladimir Michalko.flac" WAVE TRACK 01 AUDIO TITLE "Concertos а 6 (6), for organ (or harpsichord), 3 violins, flute, viola & cell..." PERFORMER "Slovak Chamber Orchestra & Bohdan Warchal" INDEX 00 00:00:00 INDEX 01 00:00:33 TRACK 02 AUDIO TITLE "Concertos а 6 (6), for organ (or harpsichord), 3 violins, flute, viola & cell..." PERFORMER "Slovak Chamber Orchestra & Bohdan Warchal" INDEX 00 03:03:40 INDEX 01 03:04:58 TRACK 03 AUDIO TITLE "Concertos а 6 (6), for organ (or harpsichord), 3 violins, flute, viola & cell..." PERFORMER "Slovak Chamber Orchestra & Bohdan Warchal" INDEX 00 08:32:05 INDEX 01 08:32:55 TRACK 04 AUDIO TITLE "Concertos а 6 (6), for organ (or harpsichord), 3 violins, flute, viola & cell..." PERFORMER "Slovak Chamber Orchestra & Bohdan Warchal" INDEX 00 12:07:08 INDEX 01 12:11:55 TRACK 05 AUDIO TITLE "Concertos а 6 (6), for organ (or harpsichord), 3 violins, flute, viola & cell..." PERFORMER "Slovak Chamber Orchestra & Bohdan Warchal" INDEX 00 14:42:45 INDEX 01 14:44:55 TRACK 06 AUDIO TITLE "Concertos а 6 (6), for organ (or harpsichord), 3 violins, flute, viola & cell..." PERFORMER "Slovak Chamber Orchestra & Bohdan Warchal" INDEX 01 18:39:08 TRACK 07 AUDIO TITLE "Concertos а 6 (6), for organ (or harpsichord), 3 violins, flute, viola & cell..." PERFORMER "Slovak Chamber Orchestra & Bohdan Warchal" INDEX 00 21:08:03 INDEX 01 21:12:08 TRACK 08 AUDIO TITLE "Concertos а 6 (6), for organ (or harpsichord), 3 violins, flute, viola & cell..." PERFORMER "Slovak Chamber Orchestra & Bohdan Warchal" INDEX 00 24:19:20 INDEX 01 24:19:28 TRACK 09 AUDIO TITLE "Concertos а 6 (6), for organ (or harpsichord), 3 violins, flute, viola & cell..." PERFORMER "Slovak Chamber Orchestra & Bohdan Warchal" INDEX 00 26:10:40 INDEX 01 26:11:45 TRACK 10 AUDIO TITLE "Concertos а 6 (6), for organ (or harpsichord), 3 violins, flute, viola & cell..." PERFORMER "Slovak Chamber Orchestra & Bohdan Warchal" INDEX 01 27:39:08 TRACK 11 AUDIO TITLE "Concertos а 6 (6), for organ (or harpsichord), 3 violins, flute, viola & cell..." PERFORMER "Slovak Chamber Orchestra & Bohdan Warchal" INDEX 00 32:08:40 INDEX 01 32:12:55 TRACK 12 AUDIO TITLE "Concertos а 6 (6), for organ (or harpsichord), 3 violins, flute, viola & cell..." PERFORMER "Slovak Chamber Orchestra & Bohdan Warchal" INDEX 00 35:51:05 INDEX 01 35:52:48 TRACK 13 AUDIO TITLE "Concertos а 6 (6), for organ (or harpsichord), 3 violins, flute, viola & cell..." PERFORMER "Slovak Chamber Orchestra & Bohdan Warchal" INDEX 00 39:53:73 INDEX 01 39:55:48 TRACK 14 AUDIO TITLE "Concertos а 6 (6), for organ (or harpsichord), 3 violins, flute, viola & cell..." PERFORMER "Slovak Chamber Orchestra & Bohdan Warchal" INDEX 00 43:45:08 INDEX 01 43:50:55 TRACK 15 AUDIO TITLE "Concertos а 6 (6), for organ (or harpsichord), 3 violins, flute, viola & cell..." PERFORMER "Slovak Chamber Orchestra & Bohdan Warchal" INDEX 00 46:45:13 INDEX 01 46:47:08 TRACK 16 AUDIO TITLE "Concertos а 6 (6), for organ (or harpsichord), 3 violins, flute, viola & cell..." PERFORMER "Slovak Chamber Orchestra & Bohdan Warchal" INDEX 00 52:15:40 INDEX 01 52:16:30 TRACK 17 AUDIO TITLE "Concertos а 6 (6), for organ (or harpsichord), 3 violins, flute, viola & cell..." PERFORMER "Slovak Chamber Orchestra & Bohdan Warchal" INDEX 00 55:14:70 INDEX 01 55:19:25 TRACK 18 AUDIO TITLE "Concertos а 6 (6), for organ (or harpsichord), 3 violins, flute, viola & cell..." PERFORMER "Slovak Chamber Orchestra & Bohdan Warchal" INDEX 00 58:23:10 INDEX 01 58:25:15 TRACK 19 AUDIO TITLE "Concertos а 6 (6), for organ (or harpsichord), 3 violins, flute, viola & cell..." PERFORMER "Slovak Chamber Orchestra & Bohdan Warchal" INDEX 01 60:07:00
[teatrix.ru].t9856.torrent 
Торрент: Зарегистрирован [ 2015-10-25 20:37 ] · 954F63E3C6723AD748DA3E5690A0D18EE0C34097

Скачать .torrent

Скачать

13 KB

Статус: проверено
Скачан: 0 раз
Размер: 293 MB
terms.php



Быстрый ответ

Имя:

      
Для отправки сообщений необходимо включить JavaScript
Показать сообщения:    

Текущее время: 09-Дек 10:46

Часовой пояс: UTC + 3


Вы можете начинать темы
Вы можете отвечать на сообщения
Вы не можете редактировать свои сообщения
Вы не можете удалять свои сообщения
Вы не можете голосовать в опросах
Вы не можете прикреплять файлы к сообщениям
Вы можете скачивать файлы