(Classical) Bela Bartok - Violin Concertos Nos. 1 & 2 - Isabelle Faust; Swedish Radio Symphony Orchestra, Daniel Harding - 2013, FLAC (image+.cue) lossless


Статистика раздачи [Обновить пиров]
Размер:  248 MB   |    Зарегистрирован:  1 год 1 месяц   |    Скачан:  1 раз

Полного источника не было: 26 дней

Личеров:  1  [  0 KB/s  ]   Подробная статистика пиров
 
   
 
 
 

[Цитировать]

Bela Bartok - Violin Concertos Nos. 1 & 2 - Isabelle Faust; Swedish Radio Symphony Orchestra, Daniel Harding
Жанр: Classical
Страна-производитель диска: France
Год издания диска: 2013
Издатель (лейбл): Harmonia Mundi
Номер по каталогу: HMC902146
Дата записи: 2012
Аудиокодек: FLAC
Тип рипа: image+.cue
Битрейт аудио: lossless
Продолжительность: 57:59
Источник: собственный рип
Наличие сканов в содержимом раздачи: да
Треклист:
Béla Bartók (1881-1945)
[1]-[2] Violin Concerto No.1, Sz 36 Op. Posth.
[3]-[5] Violin Concerto No.2, Sz 112
Исполнители:
Isabelle Faust violin
Swedish Radio Symphony Orchestra
Daniel Harding
conductor

Лог создания рипа

Exact Audio Copy V1.0 beta 3 from 29. August 2011
EAC extraction logfile from 17. August 2014, 15:45
Isabelle Faust, Swedish Radio Symphony Orchestra, Daniel Harding / Bartok - Violin Concertos Nos. 1 & 2
Used drive : HL-DT-STDVDRAM GU70N Adapter: 0 ID: 0
Read mode : SecureUtilize accurate stream : YesDefeat audio cache : YesMake use of C2 pointers : No
Read offset correction : 48Overread into Lead-In and Lead-Out : NoFill up missing offset samples with silence : YesDelete leading and trailing silent blocks : NoNull samples used in CRC calculations : YesUsed interface : Native Win32 interface for Win NT & 2000
Used output format : User Defined EncoderSelected bitrate : 128 kBit/sQuality : HighAdd ID3 tag : NoCommand line compressor : C:\Program Files (x86)\Exact Audio Copy\Flac\flac.exeAdditional command line options : -V -8 -T "Date=%year%" -T "Genre=%genre%" %source%
TOC of the extracted CD
Track | Start | Length | Start sector | End sector --------------------------------------------------------- 1 | 0:00.00 | 9:48.72 | 0 | 44171 2 | 9:48.72 | 12:18.67 | 44172 | 99588 3 | 22:07.64 | 15:18.02 | 99589 | 168440 4 | 37:25.66 | 9:16.37 | 168441 | 210177 5 | 46:42.28 | 11:14.74 | 210178 | 260801
Range status and errors
Selected range
Filename C:\temp\HMC902146 - Bartok - Violin Concertos Nos. 1 & 2 (Faust, Swedish RSO, Harding - HARMONIA MUNDI)\Bartok - Violin Concertos Nos. 1 & 2.wav
Peak level 97.1 % Extraction speed 5.0 X Range quality 99.9 % Test CRC 7478EA82 Copy CRC 7478EA82 Copy OK
No errors occurred
AccurateRip summary
Track 1 accurately ripped (confidence 28) [174B59DF] (AR v2)Track 2 accurately ripped (confidence 28) [3D845EEF] (AR v2)Track 3 accurately ripped (confidence 28) [63368E2D] (AR v2)Track 4 accurately ripped (confidence 27) [FEE2C5B6] (AR v2)Track 5 accurately ripped (confidence 27) [2EA132AE] (AR v2)
All tracks accurately ripped
End of status report
==== Log checksum D20E6AFA23CE427A984C0D767FE62331AD1A0B5BC20400B46B6A84DCA792E09A ====
[teatrix.ru].t9858.torrent 
Торрент: Зарегистрирован [ 2015-10-25 20:37 ] · 29D57B65EA39672A18D8FCCFD86FCCF95FFBE929

Скачать .torrent

Скачать

41 KB

Статус: проверено
Скачан: 1 раз
Размер: 248 MB
terms.php



Быстрый ответ

Имя:

      
Для отправки сообщений необходимо включить JavaScript
Показать сообщения:    

Текущее время: 04-Дек 19:22

Часовой пояс: UTC + 3


Вы можете начинать темы
Вы можете отвечать на сообщения
Вы не можете редактировать свои сообщения
Вы не можете удалять свои сообщения
Вы не можете голосовать в опросах
Вы не можете прикреплять файлы к сообщениям
Вы можете скачивать файлы