(Classical, Instrumental / Violin) Camille Saint-Saens - Violin Concerto 1 & 3. Vieuxtemps Violin Concerto Nº5. Chausson: Poeme - Kyung Wha Chung - Charles Dutoit & Lawrence Foster - London Symphony Orchestra, 1996, FLAC (tracks+.cue) lossles


Статистика раздачи [Обновить пиров]
Размер:  363 MB   |    Зарегистрирован:  1 год 1 месяц   |    Скачан:  0 раз

Полного источника не было: 1 месяц 10 дней

Личеров:  1  [  0 KB/s  ]   Подробная статистика пиров
 
   
 
 
 

[Цитировать]

Saint-Saens Violin Concerto 1 & 3. Vieuxtemps Violin Concerto Nº5. Chausson: Poeme - Kyung Wha Chung - Charles Dutoit & Lawrence Foster
Жанр: Classical
Страна-производитель диска: ?
Год издания диска: 1996
Издатель (лейбл): Deссa
Номер по каталогу: 448128-2
Страна: USA
Аудиокодек: FLAC
Тип рипа: tracks+.cue
Битрейт аудио: lossless
Продолжительность: 60:18:59
Источник: скачано с
сайт-источник/ник/другое: (вата)
Наличие сканов в содержимом раздачи: нет
Треклист:
Camille Saint-Saens: Violin Concertos Nos.1 & 3 / Vieuxtemps: Violin Concerto No.5
Violin Concerto No.1 in A minor, Op.20:
1. Vn Con No.1 in A, Op.20: I. Allegro -
2. Vn Con No.1 in A, Op.20: II. Andante Espressivo -
3. Vn Con No.1 in A, Op.20: III. Tempo I
- Kyung Wha Chung (violin) / Orchestre Symphonique de Montréal / Charles Dutoit (conductor)
Violin Concerto No.3 in B minor, Op.61:
4. Vn Con No.3 in b, Op.61: I. Allegro Non Troppo
5. Vn Con No.3 in b, Op.61: II. Andantino Quasi Allegretto
6. Vn Con No.3 in b, Op.61: III. Molto Moderato E Maestoso - Allegro Non Troppo
- Kyung Wha Chung (violin) / London Symphony Orchestra / Lawrence Foster (conductor)
Henri Vieuxtemps Violin Concerto Nº5
7. Vn Con No.5 in a, Op.37: I. Allegro Non Troppo
8. Vn Con No.5 in a, Op.37: II. Adagio
9. Vn Con No.5 in a, Op.37: III. Allegro Con Fuoco
- Kyung Wha Chung (violin) / London Symphony Orchestra / Lawrence Foster (conductor)
Ernest Chausson: Poeme
10. Op.25
- Kyung Wha Chung (violin) / Royal Philharmonic Orchestra / Charles Dutoit (conductor)
Kyung-Wha Chung: ‎ Violin
London Symphony Orchestra ‎
Orchestre symphonique de Montréal ‎
Royal Philharmonic Orchestra
Conducted by:
Charles Dutoit
Lawrence Foster

Лог создания рипа

Exact Audio Copy V1.0 beta 3 from 29. August 2011
EAC extraction logfile from 2. November 2014, 12:52
Kyung Wha Chung, Foster, Dutoit, LSO / Saint-Saens, Viuextemps - Violin Concertos
Used drive : MATSHITADVD-RAM UJ8A2AS Adapter: 0 ID: 1
Read mode : SecureUtilize accurate stream : YesDefeat audio cache : YesMake use of C2 pointers : No
Read offset correction : 102Overread into Lead-In and Lead-Out : NoFill up missing offset samples with silence : YesDelete leading and trailing silent blocks : NoNull samples used in CRC calculations : YesUsed interface : Native Win32 interface for Win NT & 2000Gap handling : Appended to previous track
Used output format : User Defined EncoderSelected bitrate : 1024 kBit/sQuality : HighAdd ID3 tag : NoCommand line compressor : C:\Program Files (x86)\Exact Audio Copy\Flac\flac.exeAdditional command line options : -8 -V -T "ARTIST=%artist%" -T "TITLE=%title%" -T "ALBUM=%albumtitle%" -T "DATE=%year%" -T "TRACKNUMBER=%tracknr%" -T "GENRE=%genre%" -T "PERFORMER=%albuminterpret%" -T "COMPOSER=%composer%" %haslyrics%--tag-from-file=LYRICS="%lyricsfile%"%haslyrics% -T "ALBUMARTIST=%albumartist%" -T "DISCNUMBER=%cdnumber%" -T "TOTALDISCS=%totalcds%" -T "TOTALTRACKS=%numtracks%" -T "COMMENT=%comment%" %source% -o %dest%
TOC of the extracted CD
Track | Start | Length | Start sector | End sector --------------------------------------------------------- 1 | 0:00.32 | 4:25.00 | 32 | 19906 2 | 4:25.32 | 2:10.63 | 19907 | 29719 3 | 6:36.20 | 5:19.32 | 29720 | 53676 4 | 11:55.52 | 9:58.65 | 53677 | 98591 5 | 21:54.42 | 9:16.03 | 98592 | 140294 6 | 31:10.45 | 11:39.00 | 140295 | 192719 7 | 42:49.45 | 14:40.55 | 192720 | 258774 8 | 57:30.25 | 3:43.40 | 258775 | 275539 9 | 61:13.65 | 1:15.55 | 275540 | 281219 10 | 62:29.45 | 16:29.62 | 281220 | 355456
Track 1
Filename C:\EARip\Saint-Saens. Violin Concerto Nº1&3. Vieuxtemps. Violin Concerto Nº5. Kyung Wha Chung. C.Dutoit [FLAC]\ 01 - Violin Concerto No.1 in A Op.20 -I- Allegro -.wav
Pre-gap length 0:00:02.42
Peak level 77.2 % Extraction speed 1.6 X Track quality 100.0 % Test CRC 3D04D013 Copy CRC 3D04D013 Accurately ripped (confidence 4) [075AA2F9] (AR v2) Copy OK
Track 2
Filename C:\EARip\Saint-Saens. Violin Concerto Nº1&3. Vieuxtemps. Violin Concerto Nº5. Kyung Wha Chung. C.Dutoit [FLAC]\ 02 - Violin Concerto No.1 in A Op.20 -II- Andante espressivo -.wav
Peak level 41.5 % Extraction speed 1.5 X Track quality 100.0 % Test CRC D9F99B2A Copy CRC D9F99B2A Accurately ripped (confidence 4) [58255322] (AR v2) Copy OK
Track 3
Filename C:\EARip\Saint-Saens. Violin Concerto Nº1&3. Vieuxtemps. Violin Concerto Nº5. Kyung Wha Chung. C.Dutoit [FLAC]\ 03 - Violin Concerto No.1 in A Op.20 -III- Tempo I.wav
Peak level 92.7 % Extraction speed 1.8 X Track quality 100.0 % Test CRC F1A18BCF Copy CRC F1A18BCF Accurately ripped (confidence 4) [3F22485A] (AR v2) Copy OK
Track 4
Filename C:\EARip\Saint-Saens. Violin Concerto Nº1&3. Vieuxtemps. Violin Concerto Nº5. Kyung Wha Chung. C.Dutoit [FLAC]\ 04 - Violin Concerto No.3 in B minor Op.61 -I- Allegro non troppo.wav
Pre-gap length 0:00:10.00
Peak level 95.3 % Extraction speed 2.2 X Track quality 100.0 % Test CRC 51410A07 Copy CRC 51410A07 Accurately ripped (confidence 4) [51F96F40] (AR v2) Copy OK
Track 5
Filename C:\EARip\Saint-Saens. Violin Concerto Nº1&3. Vieuxtemps. Violin Concerto Nº5. Kyung Wha Chung. C.Dutoit [FLAC]\ 05 - Violin Concerto No.3 in B minor Op.61 -II- Andantino quasi allegretto.wav
Pre-gap length 0:00:05.00
Peak level 53.4 % Extraction speed 2.5 X Track quality 100.0 % Test CRC F7A9A0B8 Copy CRC F7A9A0B8 Accurately ripped (confidence 4) [D6CFE2C2] (AR v2) Copy OK
Track 6
Filename C:\EARip\Saint-Saens. Violin Concerto Nº1&3. Vieuxtemps. Violin Concerto Nº5. Kyung Wha Chung. C.Dutoit [FLAC]\ 06 - Violin Concerto No.3 in B minor Op.61 -III- Molto moderato e maestoso - Allegro non troppo.wav
Pre-gap length 0:00:05.00
Peak level 96.6 % Extraction speed 2.8 X Track quality 100.0 % Test CRC 67EF9B09 Copy CRC 67EF9B09 Accurately ripped (confidence 4) [7446D4AC] (AR v2) Copy OK
Track 7
Filename C:\EARip\Saint-Saens. Violin Concerto Nº1&3. Vieuxtemps. Violin Concerto Nº5. Kyung Wha Chung. C.Dutoit [FLAC]\ 07 - Violin Concerto No.5 in A minor Op.37 -I- Allegro non troppo.wav
Pre-gap length 0:00:10.00
Peak level 97.4 % Extraction speed 3.1 X Track quality 100.0 % Test CRC 2BCDE4B3 Copy CRC 2BCDE4B3 Accurately ripped (confidence 4) [15494213] (AR v2) Copy OK
Track 8
Filename C:\EARip\Saint-Saens. Violin Concerto Nº1&3. Vieuxtemps. Violin Concerto Nº5. Kyung Wha Chung. C.Dutoit [FLAC]\ 08 - Violin Concerto No.5 in A minor Op.37 -II- Adagio.wav
Peak level 79.8 % Extraction speed 2.9 X Track quality 100.0 % Test CRC A6B49F68 Copy CRC A6B49F68 Accurately ripped (confidence 4) [A9C2C61C] (AR v2) Copy OK
Track 9
Filename C:\EARip\Saint-Saens. Violin Concerto Nº1&3. Vieuxtemps. Violin Concerto Nº5. Kyung Wha Chung. C.Dutoit [FLAC]\ 09 - Violin Concerto No.5 in A minor Op.37 -III- Allegro con fuoco.wav
Peak level 80.7 % Extraction speed 2.3 X Track quality 100.0 % Test CRC 754350C1 Copy CRC 754350C1 Accurately ripped (confidence 4) [19ACB477] (AR v2) Copy OK
Track 10
Filename C:\EARip\Saint-Saens. Violin Concerto Nº1&3. Vieuxtemps. Violin Concerto Nº5. Kyung Wha Chung. C.Dutoit [FLAC]\ 10 - Poème pour violin et orchestre Op.25.wav
Pre-gap length 0:00:10.00
Peak level 100.0 % Extraction speed 3.5 X Track quality 100.0 % Test CRC 99EF09D2 Copy CRC 99EF09D2 Accurately ripped (confidence 2) [E3229710] (AR v2) Copy OK
All tracks accurately ripped
No errors occurred
End of status report
==== Log checksum 299ECEFBA29E1F86FC09F24F23D3641863E8BD67D4DEAF70182C2EF5FB28BA50 ====

Содержание индексной карты (.CUE)

REM GENRE ConcertoREM DATE 1974REM DISCID 9312830AREM COMMENT "ExactAudioCopy v1.0b3"CATALOG 0028944812824PERFORMER "Kyung Wha Chung, Foster, Dutoit, LSO"TITLE "Saint-Saens, Viuextemps - Violin Concertos"FILE " 01 - Violin Concerto No.1 in A Op.20 -I- Allegro -.wav" WAVE TRACK 01 AUDIO TITLE "Violin Concerto No.1 in A Op.20 -I- Allegro -" PERFORMER "Kyung Wha Chung, Foster, Dutoit, LSO" ISRC GBF078000261 PREGAP 00:00:32 INDEX 01 00:00:00FILE " 02 - Violin Concerto No.1 in A Op.20 -II- Andante espressivo -.wav" WAVE TRACK 02 AUDIO TITLE "Violin Concerto No.1 in A Op.20 -II- Andante espressivo -" PERFORMER "Kyung Wha Chung, Foster, Dutoit, LSO" ISRC GBF078000262 INDEX 01 00:00:00FILE " 03 - Violin Concerto No.1 in A Op.20 -III- Tempo I.wav" WAVE TRACK 03 AUDIO TITLE "Violin Concerto No.1 in A Op.20 -III- Tempo I" PERFORMER "Kyung Wha Chung, Foster, Dutoit, LSO" ISRC GBF078000263 INDEX 01 00:00:00 TRACK 04 AUDIO TITLE "Violin Concerto No.3 in B minor Op.61 -I- Allegro non troppo" PERFORMER "Kyung Wha Chung, Foster, Dutoit, LSO" ISRC GBF077411991 INDEX 00 05:09:32FILE " 04 - Violin Concerto No.3 in B minor Op.61 -I- Allegro non troppo.wav" WAVE INDEX 01 00:00:00 TRACK 05 AUDIO TITLE "Violin Concerto No.3 in B minor Op.61 -II- Andantino quasi allegretto" PERFORMER "Kyung Wha Chung, Foster, Dutoit, LSO" ISRC GBF077411992 INDEX 00 09:53:65FILE " 05 - Violin Concerto No.3 in B minor Op.61 -II- Andantino quasi allegretto.wav" WAVE INDEX 01 00:00:00 TRACK 06 AUDIO TITLE "Violin Concerto No.3 in B minor Op.61 -III- Molto moderato e maestoso - Alleg..." PERFORMER "Kyung Wha Chung, Foster, Dutoit, LSO" ISRC GBF077411993 INDEX 00 09:11:03FILE " 06 - Violin Concerto No.3 in B minor Op.61 -III- Molto moderato e maestoso - Allegro non troppo.wav" WAVE INDEX 01 00:00:00 TRACK 07 AUDIO TITLE "Violin Concerto No.5 in A minor Op.37 -I- Allegro non troppo" PERFORMER "Kyung Wha Chung, Foster, Dutoit, LSO" ISRC GBF077412001 INDEX 00 11:29:00FILE " 07 - Violin Concerto No.5 in A minor Op.37 -I- Allegro non troppo.wav" WAVE INDEX 01 00:00:00FILE " 08 - Violin Concerto No.5 in A minor Op.37 -II- Adagio.wav" WAVE TRACK 08 AUDIO TITLE "Violin Concerto No.5 in A minor Op.37 -II- Adagio" PERFORMER "Kyung Wha Chung, Foster, Dutoit, LSO" ISRC GBF077412002 INDEX 01 00:00:00FILE " 09 - Violin Concerto No.5 in A minor Op.37 -III- Allegro con fuoco.wav" WAVE TRACK 09 AUDIO TITLE "Violin Concerto No.5 in A minor Op.37 -III- Allegro con fuoco" PERFORMER "Kyung Wha Chung, Foster, Dutoit, LSO" ISRC GBF077412003 INDEX 01 00:00:00 TRACK 10 AUDIO TITLE "Poиme pour violin et orchestre Op.25" PERFORMER "Kyung Wha Chung, Foster, Dutoit, LSO" ISRC GBF077710060 INDEX 00 01:05:55FILE " 10 - Poиme pour violin et orchestre Op.25.wav" WAVE INDEX 01 00:00:00
[teatrix.ru].t9859.torrent 
Торрент: Зарегистрирован [ 2015-10-25 20:37 ] · 17C739CA0A4DADA56847925049463BF574EB6037

Скачать .torrent

Скачать

16 KB

Статус: проверено
Скачан: 0 раз
Размер: 363 MB
terms.php



Быстрый ответ

Имя:

      
Для отправки сообщений необходимо включить JavaScript
Показать сообщения:    

Текущее время: 10-Дек 13:52

Часовой пояс: UTC + 3


Вы можете начинать темы
Вы можете отвечать на сообщения
Вы не можете редактировать свои сообщения
Вы не можете удалять свои сообщения
Вы не можете голосовать в опросах
Вы не можете прикреплять файлы к сообщениям
Вы можете скачивать файлы