(Classical, contemporary) Bent Sørensen (Sorensen) - Sieben Sehnsuchte; The Masque of the Red Death; La Notte - Rolf Hind, David Alberman; BBC Symphony Orchestra, Michael Schønwandt (Schonwandt) - 2013, FLAC (image+.cue) lossless


Статистика раздачи [Обновить пиров]
Размер:  193 MB   |    Зарегистрирован:  1 год 1 месяц   |    Скачан:  0 раз

Полного источника не было: Никогда

Личеров:  1  [  0 KB/s  ]   Подробная статистика пиров
 
   
 
 
 

[Цитировать]

Bent Sørensen - Sieben Sehnsüchte; The Masque of the Red Death; La Notte - Rolf Hind, David Alberman; BBC Symphony Orchestra, Michael Schønwandt
Жанр: Classical, contemporary
Страна-производитель диска: Denmark
Год издания диска: 2013
Издатель (лейбл): Dacapo
Номер по каталогу: 8.226045
Дата записи: 2011
Аудиокодек: FLAC
Тип рипа: image+.cue
Битрейт аудио: lossless
Продолжительность: 55:55
Источник: собственный рип
Наличие сканов в содержимом раздачи: да
Треклист:
Bent Sørensen (b.1955)
[1]-[7] “Sieben Sehnsüchte” for Violin and Piano (1999)
[8] “The Masque of the Red Death” for Piano (1989-90)
[9]-[10] “La Notte” Piano Concerto (1996-98)
Исполнители:
Rolf Hind piano
David Alberman violin
BBC Symphony Orchestra
Michael Schønwandt
conductor

Лог создания рипа

Exact Audio Copy V1.0 beta 3 from 29. August 2011
EAC extraction logfile from 30. July 2014, 21:10
Rolf Hind, David Alberman; BBC Symphony Orchestra, Michael Schønwandt / Bent Sorensen - La Notte
Used drive : HL-DT-STDVDRAM GU70N Adapter: 0 ID: 0
Read mode : SecureUtilize accurate stream : YesDefeat audio cache : YesMake use of C2 pointers : No
Read offset correction : 48Overread into Lead-In and Lead-Out : NoFill up missing offset samples with silence : YesDelete leading and trailing silent blocks : NoNull samples used in CRC calculations : YesUsed interface : Native Win32 interface for Win NT & 2000
Used output format : User Defined EncoderSelected bitrate : 128 kBit/sQuality : HighAdd ID3 tag : NoCommand line compressor : C:\Program Files (x86)\Exact Audio Copy\Flac\flac.exeAdditional command line options : -V -8 -T "Date=%year%" -T "Genre=%genre%" %source%
TOC of the extracted CD
Track | Start | Length | Start sector | End sector --------------------------------------------------------- 1 | 0:00.00 | 5:07.52 | 0 | 23076 2 | 5:07.52 | 2:46.37 | 23077 | 35563 3 | 7:54.14 | 3:33.20 | 35564 | 51558 4 | 11:27.34 | 2:03.41 | 51559 | 60824 5 | 13:31.00 | 4:03.08 | 60825 | 79057 6 | 17:34.08 | 2:31.62 | 79058 | 90444 7 | 20:05.70 | 1:25.57 | 90445 | 96876 8 | 21:31.52 | 10:12.50 | 96877 | 142826 9 | 31:44.27 | 13:39.68 | 142827 | 204319 10 | 45:24.20 | 10:29.40 | 204320 | 251534
Range status and errors
Selected range
Filename C:\temp\8.226045 - Sorensen - La Notte\Sorensen - La Notte.wav
Peak level 99.5 % Extraction speed 5.0 X Range quality 100.0 % Test CRC 48B206E9 Copy CRC 48B206E9 Copy OK
No errors occurred
AccurateRip summary
Track 1 not present in databaseTrack 2 not present in databaseTrack 3 not present in databaseTrack 4 not present in databaseTrack 5 not present in databaseTrack 6 not present in databaseTrack 7 not present in databaseTrack 8 not present in databaseTrack 9 not present in databaseTrack 10 not present in database
None of the tracks are present in the AccurateRip database
End of status report
==== Log checksum B275042D36A00825C2B3A5405E2C90412EC5E528B2B116508CF67D89792D631F ====
[teatrix.ru].t9860.torrent 
Торрент: Зарегистрирован [ 2015-10-25 20:37 ] · 5D3852721E37234EBAF293C7080EB12BEA3AEDBC

Скачать .torrent

Скачать

31 KB

Статус: проверено
Скачан: 0 раз
Размер: 193 MB
terms.php



Быстрый ответ

Имя:

      
Для отправки сообщений необходимо включить JavaScript
Показать сообщения:    

Текущее время: 05-Дек 05:28

Часовой пояс: UTC + 3


Вы можете начинать темы
Вы можете отвечать на сообщения
Вы не можете редактировать свои сообщения
Вы не можете удалять свои сообщения
Вы не можете голосовать в опросах
Вы не можете прикреплять файлы к сообщениям
Вы можете скачивать файлы