(Classical, Baroque / Trumpet) Haydn, Hummel, Torelli, Neruda - Trumpet Concertos (Alison Balsom, Die Deutsche Kammerphilharmonie Bremen) - 2008, FLAC (image+.cue), lossless


Статистика раздачи [Обновить пиров]
Размер:  243 MB   |    Зарегистрирован:  1 год 1 месяц   |    Скачан:  0 раз

Полного источника не было: Никогда

Личеров:  1  [  0 KB/s  ]   Подробная статистика пиров
 
   
 
 
 

[Цитировать]

ALISON BALSOMHaydn, Hummel, Torelli, Neruda - Trumpet Concertos- Жанр: Classical, Baroque / Trumpet
Страна-производитель диска: EU
Год издания диска: 2008
Издатель (лейбл): EMI Classics
Номер по каталогу: 5 0999 2 16213 0 7
Дата записи: 2008
Аудиокодек: FLAC
Тип рипа: image+.cue
Битрейт аудио: lossless
Продолжительность: 00:52:52
Релизер: Caloriana
Купить: Presto Classical
Наличие сканов: да-
Johann Nepomuk Hummel
Trumpet Concerto in E flat
01. I. Allegro con spirito (9:25)
02. II. Andante (4:45)
03. III. Rondo (4:41)
Joseph Haydn
Trumpet Concerto in E flat Hob.VII e:I
04. I. Allegro (6:37)
05. II. Andante (3:32)
06. III. Finale: Allegro (4:35)
Giuseppe Torelli
Trumpet Concerto in D
07. I. Allegro (2:00)
08. II. Adagio - Presto - Adagio (2:18)
09. III. Allegro (1:34)
Jan Křtitel Jiří Neruda
Trumpet Concerto in E flat
10. I. Allegro (5:14)
11. II. Largo (4:34)
12. III. Vivace (4:37)
-Исполнители:
Alison Balsom - trumpet
Die Deutsche Kammerphilharmonie Bremen-Отчёты

Лог создания рипа

Exact Audio Copy V0.99 prebeta 4 from 23. January 2008
EAC extraction logfile from 21. September 2009, 12:58
Alison Balsom / Haydn, Hummel, Torelli, Neruda: Trumpet Concertos
Used drive : HL-DT-STDVDRAM GSA-H42L Adapter: 2 ID: 0
Read mode : SecureUtilize accurate stream : YesDefeat audio cache : NoMake use of C2 pointers : Yes
Read offset correction : 667Overread into Lead-In and Lead-Out : NoFill up missing offset samples with silence : YesDelete leading and trailing silent blocks : NoNull samples used in CRC calculations : NoUsed interface : Native Win32 interface for Win NT & 2000
Used output format : Internal WAV RoutinesSample format : 44.100 Hz; 16 Bit; Stereo
TOC of the extracted CD
Track | Start | Length | Start sector | End sector --------------------------------------------------------- 1 | 0:00.00 | 9:24.65 | 0 | 42364 2 | 9:24.65 | 4:45.17 | 42365 | 63756 3 | 14:10.07 | 3:40.40 | 63757 | 80296 4 | 17:50.47 | 6:37.32 | 80297 | 110103 5 | 24:28.04 | 3:31.54 | 110104 | 125982 6 | 27:59.58 | 4:35.05 | 125983 | 146612 7 | 32:34.63 | 2:00.33 | 146613 | 155645 8 | 34:35.21 | 2:18.20 | 155646 | 166015 9 | 36:53.41 | 1:33.59 | 166016 | 173049 10 | 38:27.25 | 5:13.49 | 173050 | 196573 11 | 43:40.74 | 4:34.07 | 196574 | 217130 12 | 48:15.06 | 4:37.28 | 217131 | 237933 13 | 55:24.34 | 6:38.36 | 249334 | 279219
Range status and errors
Selected range
Filename M:\Nouveau dossier\Alison Balsom - Haydn, Hummel, Torelli, Neruda Trumpet Concertos.wav
Peak level 98.9 % Range quality 100.0 % Copy CRC 03E3A339 Copy OK
No errors occurred
AccurateRip summary
Track 1 accurately ripped (confidence 8) [8BC871B0]Track 2 accurately ripped (confidence 8) [A84A2209]Track 3 accurately ripped (confidence 8) [EEDE112F]Track 4 accurately ripped (confidence 8) [33205E91]Track 5 accurately ripped (confidence 8) [1574CA28]Track 6 accurately ripped (confidence 8) [A9C26EDC]Track 7 accurately ripped (confidence 8) [3D10DA49]Track 8 accurately ripped (confidence 8) [88A55D6B]Track 9 accurately ripped (confidence 8) [0E68A5D4]Track 10 accurately ripped (confidence 8) [A9EA227E]Track 11 accurately ripped (confidence 7) [FF85EC4D]Track 12 accurately ripped (confidence 7) [55FE889D]
All tracks accurately ripped
End of status report

Лог проверки качества

-----------------------
DON'T MODIFY THIS FILE
-----------------------
PERFORMER: auCDtect Task Manager, ver. 1.6.0 RC1 build 1.6.0.1Copyright (c) 2008-2010 y-soft. All rights reservedhttp://y-soft.org
ANALYZER: auCDtect: CD records authenticity detector, version 0.8.2Copyright (c) 2004 Oleg Berngardt. All rights reserved.Copyright (c) 2004 Alexander Djourik. All rights reserved.
FILE: Alison Balsom - Haydn, Hummel, Torelli, Neruda Trumpet Concertos.flac Size: 236617485 Hash: 37997B39EABC770F966827BFBEDD8A76 Accuracy: -m0 Conclusion: CDDA 100% Signature: D97450B7FCDF49CEECD1E03577D7981E26DFD0A7

Динамический диапазон

foobar2000 1.2.2 / Замер динамического диапазона (DR) 1.1.1Дата отчёта: 2014-10-30 18:15:24
--------------------------------------------------------------------------------Анализ: Giuseppe Torelli / Trumpet Concertos (1-3) Jan Křtitel Jiři Neruda / Trumpet Concertos (4-6)--------------------------------------------------------------------------------
DR Пики RMS Продолжительность трека--------------------------------------------------------------------------------DR12 -0.37 дБ -16.39 дБ 2:00 ?-Trumpet Concerto in D: I. AllegroDR13 -6.42 дБ -23.09 дБ 2:18 ?-Trumpet Concerto in D: II. Adagio - Presto - AdagioDR13 -0.21 дБ -16.84 дБ 1:34 ?-Trumpet Concerto in D: III. AllegroDR13 -0.66 дБ -17.78 дБ 5:14 ?-Trumpet Concerto in E flat: I. AllegroDR11 -5.28 дБ -21.22 дБ 4:34 ?-Trumpet Concerto in E flat: II. LargoDR12 -1.05 дБ -18.13 дБ 4:37 ?-Trumpet Concerto in E flat: III. Vivace--------------------------------------------------------------------------------
Количество треков: 6Реальные значения DR: DR12
Частота: 44100 ГцКаналов: 2Разрядность: 16Битрейт: 596 кбит/сКодек: FLAC================================================================================
--------------------------------------------------------------------------------Анализ: Johann Nepomuk Hummel / Trumpet Concertos (1-3) Joseph Haydn / Trumpet Concertos (4-6)--------------------------------------------------------------------------------
DR Пики RMS Продолжительность трека--------------------------------------------------------------------------------DR13 -0.17 дБ -17.69 дБ 9:25 ?-Trumpet Concerto in E flat: I. Allegro con spiritoDR13 -0.56 дБ -19.32 дБ 4:45 ?-Trumpet Concerto in E flat: II. AndanteDR12 -0.18 дБ -16.96 дБ 3:41 ?-Trumpet Concerto in E flat: III. RondoDR12 -0.09 дБ -16.12 дБ 6:37 ?-Trumpet Concerto in E flat (Hob. VII e:I): I. AllegroDR13 -1.65 дБ -22.44 дБ 3:32 ?-Trumpet Concerto in E flat (Hob. VII e:I): II. AndanteDR13 -0.10 дБ -16.91 дБ 4:35 ?-Trumpet Concerto in E flat (Hob. VII e:I): III. Finale: Allegro--------------------------------------------------------------------------------
Количество треков: 6Реальные значения DR: DR13
Частота: 44100 ГцКаналов: 2Разрядность: 16Битрейт: 596 кбит/сКодек: FLAC================================================================================

Доп. информация

Релиз полностью готов к воспроизведению в аудиоплеере (я ориентировался на foobar2000)При скачивании, если необходимо, переименуйте папку, в которой будет находиться альбомБольшая просьба к скачавшим поддерживать раздачу! Помогайте другим, ведь вам тоже может понадобиться помощь!Не забываем говорить "Спасибо"!Комментарии приветствуются!
[teatrix.ru].t9861.torrent 
Торрент: Зарегистрирован [ 2015-10-25 20:37 ] · F83400CC93DFC082293A7428987CFBBBED58331A

Скачать .torrent

Скачать

20 KB

Статус: проверено
Скачан: 0 раз
Размер: 243 MB
terms.php



Быстрый ответ

Имя:

      
Для отправки сообщений необходимо включить JavaScript
Показать сообщения:    

Текущее время: 03-Дек 18:38

Часовой пояс: UTC + 3


Вы можете начинать темы
Вы можете отвечать на сообщения
Вы не можете редактировать свои сообщения
Вы не можете удалять свои сообщения
Вы не можете голосовать в опросах
Вы не можете прикреплять файлы к сообщениям
Вы можете скачивать файлы