(Classical) [WEB] Evgeny Kissin: The Complete Concerto Recordings (Mozart, Haydn, Шостакович, Schumann, Beethoven, Рахманинов - Кисин, Спиваков, Giulini, Levine, Гергиев, Ozawa) - 2014, FLAC (tracks), lossless


Статистика раздачи [Обновить пиров]
Размер:  1.01 GB   |    Зарегистрирован:  1 год 1 месяц   |    Скачан:  1 раз

Полного источника не было: 27 дней

Личеров:  1  [  0 KB/s  ]   Подробная статистика пиров
 
   
 
 
 

[Цитировать]

Evgeny Kissin - The Complete Concerto Recordings
Евгений Кисин - Собрание концертов
- Жанр: Classical
Год издания диска: 2014
Издатель (лейбл): RCA Red Seal
Дата записи: 1988-1997
Аудиокодек: FLAC
Тип рипа: tracks
Битрейт аудио: lossless
Продолжительность: 04:47:00
Источник: IsraBox
Наличие сканов: Front- -Исполнители:
Евгений Кисин - фортепиано
Государственный камерный оркестр «Виртуозы Москвы», дирижёр - Владимир Спиваков (1.01-07, 2.01-07)
Vienna Philharmonic Orchestra, дирижёр - Carlo Maria Giulini (2.08-10)
The Philharmonia Orchestra, дирижёр - James Levine (3.01-06)
London Symphony Orchestra, дирижёр - Валерий Гергиев (4.01-03)
Boston Symphony Orchestra, дирижёр - Seiji Ozawa (4.04-06)
Василий Кан - труба (2.04-07)
-Треклист-CD 1 (01:06:24)
Wolfgang Amadeus Mozart
Piano Concerto No. 20 in D Minor, K.466
01. Allegro (14:10)
02. Romance (9:37)
03. Allegro assai (7:25)
Rondo in D, K.382
04. Allegretto grazioso (9:02)
Piano Concerto No. 12 in A, K.414
05. Allegro (10:32)
06. Andante (9:31)
07. Allegretto (6:06)
CD 2 (01:13:05)
Joseph Haydn
Piano Concerto in D, Hob. XVIII:11
01. Vivace (7:50)
02. Un poco adagio (8:21)
03. Rondo all'ungherese: Allegro assai (4:07)
Дмитрий Шостакович
Piano Concerto No. 1 in C Minor, Op. 35
04. Allegro moderato (6:00)
05. Lento (7:59)
06. Moderato (1:25)
07. Allegro brio, Presto (6:29)
Robert Schumann
Concerto for Piano and Orchestra in A Minor, Op. 54
08. I. Allegro affettuoso (14:50)
09. II. Intermezzo, Andantino grazioso (5:24)
10. III. Allegro vivace (10:41)
CD 3 (01:08:38)
Ludwig van Beethoven
Concerto for Piano and Orchestra No. 2 in B-Flat Major, Op. 19
01. I. Allegro con brio (13:39)
02. II. Adagio (9:11)
03. III. Rondo, Molto allegro (5:48)
Concerto for Piano and Orchestra No. 5 in E-Flat Major, Op. 73 "Emperor"
04. I. Allegro (20:57)
05. II. Adagio un poco mosso (attacca) (9:11)
06. III. Rondo, Allegro (9:52)
CD 4 (01:18:54)
Сергей Рахманинов
Concerto No. 2, Op. 18 in C Minor
01. Moderato - Allegro (11:26)
02. Adagio sostenuto (11:46)
03. Allegro scherzando (11:19)
Piano Concerto No. 3 in D Minor, Op. 30
04. Allegro ma non tanto (18:35)
05. Intermezzo: Adagio (10:30)
06. L' istesso tempo - Finale: Alla breve (15:18)

ОтчётыCD 1Лог проверки качества

-----------------------
DON'T MODIFY THIS FILE
-----------------------
PERFORMER: auCDtect Task Manager, ver. 1.6.0 RC1 build 1.6.0.1Copyright (c) 2008-2010 y-soft. All rights reservedhttp://y-soft.org
ANALYZER: auCDtect: CD records authenticity detector, version 0.8.2Copyright (c) 2004 Oleg Berngardt. All rights reserved.Copyright (c) 2004 Alexander Djourik. All rights reserved.
FILE: 01-07-Allegretto-LLS.flac Size: 23681224 Hash: AA92045AD3C15EEF1BFFAC84BB9903AF Accuracy: -m0 Conclusion: CDDA 100% Signature: 2D0017DC9EB5078D34BBC2F72D86136AB8C79059FILE: 01-06-Andante-LLS.flac Size: 33017543 Hash: E7B40C501C065C453357587BC990EE7D Accuracy: -m0 Conclusion: CDDA 100% Signature: 048B6299AA5E345115797E68FD754505F1F742D3FILE: 01-05-Allegro-LLS.flac Size: 43291808 Hash: 3216753585E5349EE23717159CA6D28A Accuracy: -m0 Conclusion: CDDA 100% Signature: A5E1D80F60FC17565B30C474132551100AD65ABEFILE: 01-04-Allegretto_grazioso-LLS.flac Size: 32093544 Hash: D4ED34D613BE88F92BF216E17314B37B Accuracy: -m0 Conclusion: CDDA 100% Signature: AF947A903731F61BBD2A133995F475B32ED9C0E9FILE: 01-03-Rondo_Allegro_assai-LLS.flac Size: 28588840 Hash: 19946ADFFBD626EC8CFA4702658B9709 Accuracy: -m0 Conclusion: CDDA 100% Signature: 32F26651F6CA8A2CAAB1282FD9D3C5319C4A96CFFILE: 01-02-Romance-LLS.flac Size: 33266705 Hash: 47FD59CA05156F256357A214D19D5B61 Accuracy: -m0 Conclusion: CDDA 100% Signature: F4BF4CE64FE75C2261197DEF0D72F338BB3530F5FILE: 01-01-Allegro-LLS.flac Size: 53488490 Hash: 7F1F5FA355CA7B59DE54E73F673C3A01 Accuracy: -m0 Conclusion: CDDA 99% Signature: 5768DC3148B7AEF04E303A25E9083007B3A6FAF6

Динамический диапазон

foobar2000 1.2.2 / Замер динамического диапазона (DR) 1.1.1Дата отчёта: 2014-10-27 21:30:28
--------------------------------------------------------------------------------Анализ: Evgeny Kissin, Moscow Virtuosi, Vladimir Spivakov / The Complete Concerto Recordings--------------------------------------------------------------------------------
DR Пики RMS Продолжительность трека--------------------------------------------------------------------------------DR15 -1.64 дБ -22.16 дБ 14:10 ?-Piano Concerto No. 20 in D Minor, K.466:AllegroDR13 -4.23 дБ -24.13 дБ 9:37 ?-Piano Concerto No. 20 in D Minor, K.466:RomanceDR15 -2.02 дБ -21.67 дБ 7:25 ?-Piano Concerto No. 20 in D Minor, K.466:Rondo: Allegro assaiDR16 -1.68 дБ -23.94 дБ 9:02 ?-Rondo in D, K.382:Allegretto graziosoDR15 -1.74 дБ -22.69 дБ 10:32 ?-Piano Concerto No. 12 in A, K.414:AllegroDR16 -7.51 дБ -29.99 дБ 9:31 ?-Piano Concerto No. 12 in A, K.414:AndanteDR15 -5.50 дБ -25.55 дБ 6:06 ?-Piano Concerto No. 12 in A, K.414:Allegretto--------------------------------------------------------------------------------
Количество треков: 7Реальные значения DR: DR15
Частота: 44100 ГцКаналов: 2Разрядность: 16Битрейт: 511 кбит/сКодек: FLAC================================================================================

Скриншот спектра частот

CD 2Лог проверки качества

-----------------------
DON'T MODIFY THIS FILE
-----------------------
PERFORMER: auCDtect Task Manager, ver. 1.6.0 RC1 build 1.6.0.1Copyright (c) 2008-2010 y-soft. All rights reservedhttp://y-soft.org
ANALYZER: auCDtect: CD records authenticity detector, version 0.8.2Copyright (c) 2004 Oleg Berngardt. All rights reserved.Copyright (c) 2004 Alexander Djourik. All rights reserved.
FILE: 02-10-III_Allegro_vivace-LLS.flac Size: 48590467 Hash: 3512486F169F0796F7D8CD03CA743691 Accuracy: -m0 Conclusion: CDDA 100% Signature: EBE780C9B2386EC118C3019FAC4F0D1749AA1E5BFILE: 02-09-II_Intermezzo_Andantino_grazioso-LLS.flac Size: 20418825 Hash: F6EFE19D915ABE0601E3BDCF7C478666 Accuracy: -m0 Conclusion: CDDA 100% Signature: 74B22FE18D036FF86D6423B3755C24FE0E18F841FILE: 02-08-I_Allegro_affettuoso-LLS.flac Size: 58531180 Hash: 57598BCFEB69E6C7F5DF49AD4F33C096 Accuracy: -m0 Conclusion: CDDA 100% Signature: F9784FDDDEB229EA09756DEDFA4FF12E653047D5FILE: 02-07-Allegro_brio_Presto-LLS.flac Size: 28833736 Hash: 9BED69BC469CB1ADE7F9DA230C681C20 Accuracy: -m0 Conclusion: CDDA 100% Signature: 97E27F8A1D0EE95FB573CC3703DD6BA73BD9F9BEFILE: 02-06-Moderato-LLS.flac Size: 5849945 Hash: D4B83BBFFE991B0C56D140B955F2351C Accuracy: -m0 Conclusion: CDDA 100% Signature: 618F919CBFAFF2DC730AB7C1F6ACE8A9C18E6C69FILE: 02-05-Lento-LLS.flac Size: 27993913 Hash: 16E8D1E35EF4EF4045CFCD8DB8873D56 Accuracy: -m0 Conclusion: CDDA 100% Signature: EF3F364BA47B314516F3D5885F8AAABCB44F2DFFFILE: 02-04-Allegro_moderato-LLS.flac Size: 25192933 Hash: B89CBB4EB34EC1C438D10202ADA069EA Accuracy: -m0 Conclusion: CDDA 100% Signature: 723AD8DFC71BA48C7FD5F90704DCC73CC0480B9BFILE: 02-03-Rondo_all_ungherese_Allegro_assai-LLS.flac Size: 16688735 Hash: 88EEA5183363FA61528DC719AB655F4E Accuracy: -m0 Conclusion: CDDA 58% Signature: 5C1836E0C845D3CB060D239B95261B15CBC0C57AFILE: 02-02-Un_poco_adagio-LLS.flac Size: 29105804 Hash: F240F1C59A64F272A253D96CB12FDD25 Accuracy: -m0 Conclusion: CDDA 100% Signature: 1328FD6696583FD8A7BBF1306EF65C68D18D9960FILE: 02-01-Vivace-LLS.flac Size: 31662484 Hash: 9ED368967F1AEA1467F26A280D5728C5 Accuracy: -m0 Conclusion: CDDA 87% Signature: 4EA4A8B1B40DEECB204AF1CB75CA17E6FA1C3725

Динамический диапазон

foobar2000 1.2.2 / Замер динамического диапазона (DR) 1.1.1Дата отчёта: 2014-10-27 23:08:47
--------------------------------------------------------------------------------Анализ: Evgeny Kissin, Moscow Virtuosi, Vladimir Spivakov / Evgeny Kissin: The Complete Concerto Recordings (1-7) Evgeny Kissin, Vienna Philharmonic Orchestra, Carlo Maria Giulini / Evgeny Kissin: The Complete Concerto Recordings (8-10)--------------------------------------------------------------------------------
DR Пики RMS Продолжительность трека--------------------------------------------------------------------------------DR15 -0.12 дБ -20.53 дБ 7:50 ?-Piano Concerto in D, Hob. XVIII:11:VivaceDR14 -4.12 дБ -25.18 дБ 8:21 ?-Piano Concerto in D, Hob. XVIII:11:Un poco adagioDR12 0.00 дБ -19.82 дБ 4:07 ?-Piano Concerto in D, Hob. XVIII:11:Rondo all'ungherese: Allegro assaiDR14 -0.11 дБ -20.23 дБ 6:00 ?-Piano Concerto No. 1 in C Minor, Op. 35:Allegro moderatoDR15 -0.16 дБ -22.49 дБ 7:59 ?-Piano Concerto No. 1 in C Minor, Op. 35:LentoDR11 -5.10 дБ -21.77 дБ 1:25 ?-Piano Concerto No. 1 in C Minor, Op. 35:ModeratoDR15 -0.33 дБ -21.01 дБ 6:29 ?-Piano Concerto No. 1 in C Minor, Op. 35:Allegro brio, PrestoDR16 -0.23 дБ -22.17 дБ 14:50 ?-Concerto for Piano and Orchestra in A Minor, Op. 54:I. Allegro affettuosoDR13 -9.31 дБ -28.13 дБ 5:24 ?-Concerto for Piano and Orchestra in A Minor, Op. 54:II. Intermezzo, Andantino graziosoDR15 0.00 дБ -19.37 дБ 10:41 ?-Concerto for Piano and Orchestra in A Minor, Op. 54:III. Allegro vivace--------------------------------------------------------------------------------
Количество треков: 10Реальные значения DR: DR14
Частота: 44100 ГцКаналов: 2Разрядность: 16Битрейт: 603 кбит/сКодек: FLAC================================================================================

Скриншот спектра частот

CD 3Лог проверки качества

-----------------------
DON'T MODIFY THIS FILE
-----------------------
PERFORMER: auCDtect Task Manager, ver. 1.6.0 RC1 build 1.6.0.1Copyright (c) 2008-2010 y-soft. All rights reservedhttp://y-soft.org
ANALYZER: auCDtect: CD records authenticity detector, version 0.8.2Copyright (c) 2004 Oleg Berngardt. All rights reserved.Copyright (c) 2004 Alexander Djourik. All rights reserved.
FILE: 03-06-III_Rondo_Allegro-LLS.flac Size: 40919792 Hash: 1000EFC8D9BB5C419062FADC4D32111B Accuracy: -m0 Conclusion: CDDA 49% Signature: A6E5FAAC637F3CA8C24485D85B22CF11E56E0D69FILE: 03-05-II_Adagio_un_poco_mosso_attacca-LLS.flac Size: 27034943 Hash: DBAED39745F9B2004CEC5B2BBD237DB9 Accuracy: -m0 Conclusion: MPEG 99% Signature: 480667AB8C7B5E81E6688A6E7C6E92B5BEEF70CEFILE: 03-04-I_Allegro-LLS.flac Size: 82783006 Hash: 73F6E5DB5FB33E974392BF34F9213BD2 Accuracy: -m0 Conclusion: MPEG 93% Signature: 6761B7715C0EFB1D50097FB145B2ADD8F7AE0A37FILE: 03-03-III_Rondo_Molto_allegro-LLS.flac Size: 23843575 Hash: CAC7B8D4D4C24977CE5EEB0007C564CE Accuracy: -m0 Conclusion: CDDA 54% Signature: 0E84C0B59F6D7D5AB8FA9E49F491D5595C581E8EFILE: 03-02-II_Adagio-LLS.flac Size: 30754841 Hash: D792A22598BE5CF788BF6E699676BC9F Accuracy: -m0 Conclusion: MPEG 93% Signature: B5CCE85B5C8E86EF0AF2CCEDF7FBABB1123A1BFBFILE: 03-01-I_Allegro_con_brio-LLS.flac Size: 51966257 Hash: 5C6D5F8A25AA95BA23B858784F5DC41D Accuracy: -m0 Conclusion: CDDA 49% Signature: ABD5EB6621859B4BE3C9760C86F8B6280818979D

Динамический диапазон

foobar2000 1.2.2 / Замер динамического диапазона (DR) 1.1.1Дата отчёта: 2014-10-27 22:41:08
--------------------------------------------------------------------------------Анализ: Evgeny Kissin, The Philharmonia Orchestra, James Levine / Evgeny Kissin: The Complete Concerto Recordings--------------------------------------------------------------------------------
DR Пики RMS Продолжительность трека--------------------------------------------------------------------------------DR14 -2.13 дБ -23.68 дБ 13:39 ?-Concerto for Piano and Orchestra No. 2 in B-Flat Major, Op. 19:I. Allegro con brioDR14 -2.66 дБ -25.52 дБ 9:11 ?-Concerto for Piano and Orchestra No. 2 in B-Flat Major, Op. 19:II. AdagioDR13 -2.82 дБ -21.51 дБ 5:48 ?-Concerto for Piano and Orchestra No. 2 in B-Flat Major, Op. 19:III. Rondo, Molto allegroDR15 0.00 дБ -20.92 дБ 20:57 ?-Concerto for Piano and Orchestra No. 5 in E-Flat Major, Op. 73 "Emperor":I. AllegroDR15 -9.49 дБ -31.24 дБ 9:11 ?-Concerto for Piano and Orchestra No. 5 in E-Flat Major, Op. 73 "Emperor":II. Adagio un poco mosso (attacca)DR16 -0.23 дБ -20.74 дБ 9:52 ?-Concerto for Piano and Orchestra No. 5 in E-Flat Major, Op. 73 "Emperor":III. Rondo, Allegro--------------------------------------------------------------------------------
Количество треков: 6Реальные значения DR: DR15
Частота: 44100 ГцКаналов: 2Разрядность: 16Битрейт: 549 кбит/сКодек: FLAC================================================================================

Скриншот спектра частот

CD 4Лог проверки качества

-----------------------
DON'T MODIFY THIS FILE
-----------------------
PERFORMER: auCDtect Task Manager, ver. 1.6.0 RC1 build 1.6.0.1Copyright (c) 2008-2010 y-soft. All rights reservedhttp://y-soft.org
ANALYZER: auCDtect: CD records authenticity detector, version 0.8.2Copyright (c) 2004 Oleg Berngardt. All rights reserved.Copyright (c) 2004 Alexander Djourik. All rights reserved.
FILE: 04-06-L_istesso_tempo-Finale_Alla_breve-LLS.flac Size: 61610730 Hash: D8ADED03334ABB6463D13ADE5032C4C8 Accuracy: -m0 Conclusion: CDDA 99% Signature: 0B5ED656959846FB73E8F4A47075653EC40F7CF2FILE: 04-05-Intermezzo_Adagio-LLS.flac Size: 37505960 Hash: 7E4BA0811B4A7762B80C070401195A40 Accuracy: -m0 Conclusion: CDDA 100% Signature: 39453590B54076F1F63A9C87F2D872950C7CEC7EFILE: 04-04-Allegro_ma_non_tanto-LLS.flac Size: 63843703 Hash: CFB626938E6968EA46FA0BEF76DF7766 Accuracy: -m0 Conclusion: CDDA 99% Signature: AB6AD6896F20B3F25DA7BF0D057552DDFEEB1118FILE: 04-03-Allegro_scherzando-LLS.flac Size: 42905694 Hash: CE3BDDD52D722A229E9F4AF54651D927 Accuracy: -m0 Conclusion: CDDA 100% Signature: 53FAB3C8D9366DBBAF495859E518FA81F1691897FILE: 04-02-Adagio_sostenuto-LLS.flac Size: 37026964 Hash: 8E1B4EC169629D0E62F575F77C8B0BF9 Accuracy: -m0 Conclusion: CDDA 100% Signature: 8B4ED80DD1699EF39356F132611B1C3518EE64D2FILE: 04-01-Moderato-Allegro-LLS.flac Size: 43186505 Hash: 417B1BAB6B089FFE9E0E03A33C95179C Accuracy: -m0 Conclusion: CDDA 100% Signature: B30FB3684885491C4C1346C19C16EF3E22D61300

Динамический диапазон

foobar2000 1.2.2 / Замер динамического диапазона (DR) 1.1.1Дата отчёта: 2014-10-27 22:54:05
--------------------------------------------------------------------------------Анализ: Evgeny Kissin, Boston Symphony Orchestra, Seiji Ozawa / Evgeny Kissin: The Complete Concerto Recordings (1-3) Evgeny Kissin, London Symphony Orchestra, Valery Gergiev / Evgeny Kissin: The Complete Concerto Recordings (4-6)--------------------------------------------------------------------------------
DR Пики RMS Продолжительность трека--------------------------------------------------------------------------------DR16 -3.08 дБ -26.35 дБ 18:35 ?-Piano Concerto No. 3 in D Minor, Op. 30:Allegro ma non tantoDR13 -8.96 дБ -27.83 дБ 10:30 ?-Piano Concerto No. 3 in D Minor, Op. 30:Intermezzo: AdagioDR17 0.00 дБ -22.31 дБ 15:18 ?-Piano Concerto No. 3 in D Minor, Op. 30:L' istesso tempo - Finale: Alla breveDR15 0.00 дБ -21.85 дБ 11:26 ?-Concerto No. 2, Op. 18 in C Minor:Moderato - AllegroDR16 -0.65 дБ -28.26 дБ 11:46 ?-Concerto No. 2, Op. 18 in C Minor:Adagio sostenutoDR16 -0.73 дБ -22.25 дБ 11:19 ?-Concerto No. 2, Op. 18 in C Minor:Allegro scherzando--------------------------------------------------------------------------------
Количество треков: 6Реальные значения DR: DR15
Частота: 44100 ГцКаналов: 2Разрядность: 16Битрейт: 502 кбит/сКодек: FLAC================================================================================

Скриншот спектра частот

Доп. информация

Релиз полностью готов к воспроизведению в аудиоплеере (я ориентировался на foobar2000)При скачивании, если необходимо, переименуйте папку, в которой будут находиться альбомыБольшая просьба к скачавшим поддерживать раздачу! Помогайте другим, ведь вам тоже может понадобиться помощь!Не забываем говорить "Спасибо"!Комментарии приветствуются!
[teatrix.ru].t9862.torrent 
Торрент: Зарегистрирован [ 2015-10-25 20:37 ] · 6D71EE38963D4134D104E3EC1E5D53DF46543F3A

Скачать .torrent

Скачать

13 KB

Статус: проверено
Скачан: 1 раз
Размер: 1.01 GB
terms.php



Быстрый ответ

Имя:

      
Для отправки сообщений необходимо включить JavaScript
Показать сообщения:    

Текущее время: 11-Дек 09:11

Часовой пояс: UTC + 3


Вы можете начинать темы
Вы можете отвечать на сообщения
Вы не можете редактировать свои сообщения
Вы не можете удалять свои сообщения
Вы не можете голосовать в опросах
Вы не можете прикреплять файлы к сообщениям
Вы можете скачивать файлы