(Classical) Béla Bartók (Bela Bartok): Klavierkonzerte 1–3 (Radio-Symphonie-Orchester Berlin · Ferenc Fricsay · Geza (Géza) Anda), 1995, FLAC (tracks+.cue) lossless


Статистика раздачи [Обновить пиров]
Размер:  351 MB   |    Зарегистрирован:  1 год 1 месяц   |    Скачан:  0 раз

Полного источника не было: Никогда

Личеров:  1  [  0 KB/s  ]   Подробная статистика пиров
 
   
 
 
 

[Цитировать]

Bela Bartok: Klavierkonzerte 1–3
Жанр: classical · Страна-производитель диска: German
Издатель (лейбл): Deutsche Grammophon · Номер по каталогу: 447 399-2
Год издания диска: 1995 · Дата записи: 1960
Аудиокодек: FLAC · Тип рипа: tracks+.cue · Битрейт аудио: lossless
Продолжительность: 01:17:59 · Источник: blogspot.com
Наличие сканов в содержимом раздачи: да
Исполнители: Radio-Symphonie-Orchester Berlin,
conductor — Ferenc Fricsay, piano — Géza Anda.
Трэклист:
Bela Bartok
Konzert für Klavier und Orchester Nr. 1
01. I. Allegro moderato – Allegro [9:14]
02. II. Andante [8:35]
03. III. Allegro molto [7:23]
Konzert für Klavier und Orchester Nr. 2
04. I. Allegro [9:50]
05. II. Adagio – Presto – Adagio [12:19]
06. III. Allegro molto [6:22]
Konzert für Klavier und Orchester Nr. 3
07. I. Allegretto [7:13]
08. II. Adagio religioso [10:17]
09. III. Allegro vivace [6:46]

Лог создания рипа

Exact Audio Copy V0.99 prebeta 3 from 28. July 2007
EAC extraction logfile from 3. May 2009, 23:05
Geza Anda / Great Pianist of the 20th Century Vol.01 [CD 01]
Used drive : PLEXTOR CD-R PX-W2410A Adapter: 0 ID: 1
Read mode : SecureUtilize accurate stream : YesDefeat audio cache : YesMake use of C2 pointers : No
Read offset correction : 98Overread into Lead-In and Lead-Out : NoFill up missing offset samples with silence : YesDelete leading and trailing silent blocks : NoNull samples used in CRC calculations : YesUsed interface : Native Win32 interface for Win NT & 2000Gap handling : Appended to previous track
Used output format : Internal WAV RoutinesSample format : 44.100 Hz; 16 Bit; Stereo
TOC of the extracted CD
Track | Start | Length | Start sector | End sector --------------------------------------------------------- 1 | 0:00.32 | 9:14.00 | 32 | 41581 2 | 9:14.32 | 8:35.25 | 41582 | 80231 3 | 17:49.57 | 7:22.50 | 80232 | 113431 4 | 25:12.32 | 9:50.00 | 113432 | 157681 5 | 35:02.32 | 12:19.00 | 157682 | 213106 6 | 47:21.32 | 6:22.00 | 213107 | 241756 7 | 53:43.32 | 7:13.00 | 241757 | 274231 8 | 60:56.32 | 10:16.38 | 274232 | 320469 9 | 71:12.70 | 6:46.37 | 320470 | 350956
Track 1
Filename h:\audio\01 - Piano Concerto No.1 - I. Allegro moderato-Allegro.wav
Pre-gap length 0:00:02.32
Peak level 99.9 % Track quality 100.0 % Test CRC CEDA5F06 Copy CRC CEDA5F06 Accurately ripped (confidence 9) [3FD22276] Copy OK
Track 2
Filename h:\audio\02 - Piano Concerto No.1 - II. Andante.wav
Peak level 99.1 % Track quality 100.0 % Test CRC CEE7E6F4 Copy CRC CEE7E6F4 Accurately ripped (confidence 8) [23007131] Copy OK
Track 3
Filename h:\audio\03 - Piano Concerto No.1 - III. Allegro molto.wav
Peak level 92.3 % Track quality 100.0 % Test CRC FB1605A1 Copy CRC FB1605A1 Accurately ripped (confidence 9) [D44A17B5] Copy OK
Track 4
Filename h:\audio\04 - Piano Concerto No.2 - I. Allegro.wav
Pre-gap length 0:00:09.65
Peak level 87.0 % Track quality 100.0 % Test CRC C50C9459 Copy CRC C50C9459 Accurately ripped (confidence 9) [4362C949] Copy OK
Track 5
Filename h:\audio\05 - Piano Concerto No.2 - II. Adagio-Presto-Adagio.wav
Peak level 88.9 % Track quality 100.0 % Test CRC C703AC32 Copy CRC C703AC32 Accurately ripped (confidence 9) [0142042D] Copy OK
Track 6
Filename h:\audio\06 - Piano Concerto No.2 - III. Allegro molto.wav
Peak level 97.5 % Track quality 100.0 % Test CRC 8AEDA2A0 Copy CRC 8AEDA2A0 Accurately ripped (confidence 9) [9423DEA2] Copy OK
Track 7
Filename h:\audio\07 - Piano Concerto No.3 - I. Allegretto.wav
Pre-gap length 0:00:09.60
Peak level 97.9 % Track quality 99.9 % Test CRC 3E0E3355 Copy CRC 3E0E3355 Accurately ripped (confidence 9) [18917381] Copy OK
Track 8
Filename h:\audio\08 - Piano Concerto No.3 - II. Adagio religioso.wav
Peak level 61.6 % Track quality 100.0 % Test CRC 64C6426C Copy CRC 64C6426C Accurately ripped (confidence 9) [941182F0] Copy OK
Track 9
Filename h:\audio\09 - Piano Concerto No.3 - III. Allegro vivace.wav
Peak level 97.4 % Track quality 100.0 % Test CRC BC5661DE Copy CRC BC5661DE Accurately ripped (confidence 8) [7526C18E] Copy OK
All tracks accurately ripped
No errors occurred
End of status report

Содержание индексной карты (.CUE)

REM DATE 1995REM DISCID 71124709REM COMMENT "ExactAudioCopy v0.99pb3"PERFORMER "Géza Anda · RSO Berlin · Ferenc Fricsay"TITLE "Klavierkonzerte 1–3"FILE "01. I. Allegro moderato – Allegro.wav" WAVE TRACK 01 AUDIO TITLE "I. Allegro moderato – Allegro" PERFORMER "Géza Anda · RSO Berlin · Ferenc Fricsay" PREGAP 00:00:32 INDEX 01 00:00:00FILE "02. II. Andante.wav" WAVE TRACK 02 AUDIO TITLE "II. Andante" PERFORMER "Géza Anda · RSO Berlin · Ferenc Fricsay" INDEX 01 00:00:00FILE "03. III. Allegro molto.wav" WAVE TRACK 03 AUDIO TITLE "III. Allegro molto" PERFORMER "Géza Anda · RSO Berlin · Ferenc Fricsay" INDEX 01 00:00:00 TRACK 04 AUDIO TITLE "I. Allegro" PERFORMER "Géza Anda · RSO Berlin · Ferenc Fricsay" INDEX 00 07:12:60FILE "04. I. Allegro.wav" WAVE INDEX 01 00:00:00FILE "05. II. Adagio – Presto – Adagio.wav" WAVE TRACK 05 AUDIO TITLE "II. Adagio – Presto – Adagio" PERFORMER "Géza Anda · RSO Berlin · Ferenc Fricsay" INDEX 01 00:00:00FILE "06. III. Allegro molto.wav" WAVE TRACK 06 AUDIO TITLE "III. Allegro molto" PERFORMER "Géza Anda · RSO Berlin · Ferenc Fricsay" INDEX 01 00:00:00 TRACK 07 AUDIO TITLE "I. Allegretto" PERFORMER "Géza Anda · RSO Berlin · Ferenc Fricsay" INDEX 00 06:12:15FILE "07. I. Allegretto.wav" WAVE INDEX 01 00:00:00FILE "08. II. Adagio religioso.wav" WAVE TRACK 08 AUDIO TITLE "II. Adagio religioso" PERFORMER "Géza Anda · RSO Berlin · Ferenc Fricsay" INDEX 01 00:00:00FILE "09. III. Allegro vivace.wav" WAVE TRACK 09 AUDIO TITLE "III. Allegro vivace" PERFORMER "Géza Anda · RSO Berlin · Ferenc Fricsay" INDEX 01 00:00:00
[teatrix.ru].t9863.torrent 
Торрент: Зарегистрирован [ 2015-10-25 20:37 ] · 586BF7D7DA06F35F29EE205C357F7334EC917118

Скачать .torrent

Скачать

15 KB

Статус: проверено
Скачан: 0 раз
Размер: 351 MB
terms.php



Быстрый ответ

Имя:

      
Для отправки сообщений необходимо включить JavaScript
Показать сообщения:    

Текущее время: 09-Дек 18:31

Часовой пояс: UTC + 3


Вы можете начинать темы
Вы можете отвечать на сообщения
Вы не можете редактировать свои сообщения
Вы не можете удалять свои сообщения
Вы не можете голосовать в опросах
Вы не можете прикреплять файлы к сообщениям
Вы можете скачивать файлы